<?xml version="1.0" standalone="no"?>
<!DOCTYPE svg PUBLIC "-//W3C//DTD SVG 1.1//EN" "http://www.w3.org/Graphics/SVG/1.1/DTD/svg11.dtd" >
<svg xmlns="http://www.w3.org/2000/svg" xmlns:xlink="http://www.w3.org/1999/xlink" version="1.1">
<metadata></metadata>
<defs>
<font id="din_next_lt_proitalic" horiz-adv-x="1058" >
<font-face units-per-em="2048" ascent="1536" descent="-512" />
<missing-glyph horiz-adv-x="475" />
<glyph unicode="&#xfb01;" horiz-adv-x="1112" d="M119 20l145 818q3 12 -8 12h-84q-17 0 -14 20l14 91q3 20 23 20h84q11 0 14 12l14 90q30 168 109.5 239t230.5 71h72q19 0 16 -21l-18 -108q-3 -21 -23 -21h-51q-88 0 -121.5 -29t-50.5 -124l-18 -97q-3 -12 8 -12h184q9 0 14.5 -5.5t4.5 -14.5l-17 -91q-3 -20 -24 -20 h-183q-9 0 -12 -12l-147 -818q-3 -20 -21 -20h-125q-8 0 -12.5 5.5t-3.5 14.5zM713 20l166 941q3 20 22 20h125q19 0 16 -20l-168 -941q-3 -20 -20 -20h-123q-21 0 -18 20zM922 1231l24 141q4 21 23 21h135q20 0 16 -21l-24 -141q-3 -21 -25 -21h-133q-20 0 -16 21z" />
<glyph unicode="&#xfb02;" horiz-adv-x="1167" d="M119 20l145 818q3 12 -8 12h-84q-17 0 -14 20l14 91q3 20 23 20h84q11 0 14 12l14 90q30 168 109.5 239t230.5 71h72q19 0 16 -21l-18 -108q-3 -21 -23 -21h-51q-88 0 -121.5 -29t-50.5 -124l-18 -97q-3 -12 8 -12h184q9 0 14.5 -5.5t4.5 -14.5l-17 -91q-3 -20 -24 -20 h-183q-9 0 -12 -12l-147 -818q-3 -20 -21 -20h-125q-8 0 -12.5 5.5t-3.5 14.5zM750 244l204 1128q4 21 23 21h123q9 0 14 -6t4 -15l-207 -1126q-9 -58 7.5 -81.5t66.5 -23.5h37q19 0 16 -20l-16 -111q-3 -20 -25 -20h-65q-120 0 -162 61t-20 193z" />
<glyph unicode="&#xfb03;" horiz-adv-x="1736" d="M119 20l145 818q3 12 -8 12h-84q-17 0 -14 20l14 91q3 20 23 20h84q11 0 14 12l14 90q30 168 109.5 239t230.5 71h72q19 0 16 -21l-18 -108q-3 -21 -23 -21h-51q-88 0 -121.5 -29t-50.5 -124l-18 -97q-3 -12 8 -12h184q9 0 14.5 -5.5t4.5 -14.5l-17 -91q-3 -20 -24 -20 h-183q-9 0 -12 -12l-147 -818q-3 -20 -21 -20h-125q-8 0 -12.5 5.5t-3.5 14.5zM743 20l146 818q3 12 -8 12h-84q-18 0 -15 20l15 91q3 20 22 20h84q12 0 15 12l14 90q30 168 109.5 239t230.5 71h71q9 0 14 -6t3 -15l-19 -108q-3 -21 -22 -21h-51q-88 0 -121.5 -29 t-50.5 -124l-19 -97q-3 -12 8 -12h185q21 0 18 -20l-16 -91q-3 -20 -25 -20h-182q-9 0 -12 -12l-148 -818q-3 -20 -20 -20h-125q-8 0 -13 5.5t-4 14.5zM1337 20l166 941q3 20 23 20h125q19 0 16 -20l-168 -941q-3 -20 -20 -20h-123q-9 0 -14.5 5.5t-4.5 14.5zM1546 1231 l25 141q3 21 22 21h136q19 0 16 -21l-25 -141q-3 -21 -24 -21h-133q-9 0 -14 6t-3 15z" />
<glyph unicode="&#xfb04;" horiz-adv-x="1794" d="M119 20l145 818q3 12 -8 12h-84q-17 0 -14 20l14 91q3 20 23 20h84q11 0 14 12l14 90q30 168 109.5 239t230.5 71h72q19 0 16 -21l-18 -108q-3 -21 -23 -21h-51q-88 0 -121.5 -29t-50.5 -124l-18 -97q-3 -12 8 -12h184q9 0 14.5 -5.5t4.5 -14.5l-17 -91q-3 -20 -24 -20 h-183q-9 0 -12 -12l-147 -818q-3 -20 -21 -20h-125q-8 0 -12.5 5.5t-3.5 14.5zM743 20l146 818q3 12 -8 12h-84q-18 0 -15 20l15 91q3 20 22 20h84q12 0 15 12l14 90q30 168 109.5 239t230.5 71h71q9 0 14 -6t3 -15l-19 -108q-3 -21 -22 -21h-51q-88 0 -121.5 -29 t-50.5 -124l-19 -97q-3 -12 8 -12h185q21 0 18 -20l-16 -91q-3 -20 -25 -20h-182q-9 0 -12 -12l-148 -818q-3 -20 -20 -20h-125q-8 0 -13 5.5t-4 14.5zM1374 244l205 1128q3 21 23 21h122q9 0 14.5 -6t4.5 -15l-207 -1126q-9 -58 7.5 -81.5t66.5 -23.5h37q19 0 16 -20 l-16 -111q-3 -20 -25 -20h-66q-120 0 -162 61t-20 193z" />
<glyph horiz-adv-x="0" />
<glyph horiz-adv-x="682" />
<glyph unicode=" "  horiz-adv-x="475" />
<glyph unicode="&#x09;" horiz-adv-x="475" />
<glyph unicode="&#xa0;" horiz-adv-x="475" />
<glyph unicode="!" horiz-adv-x="559" d="M119 20l28 170q3 21 23 21h143q9 0 14.5 -6t4.5 -15l-29 -170q-3 -20 -22 -20h-146q-19 0 -16 20zM213 395l143 977q3 21 21 21h141q20 0 17 -21l-203 -977q-3 -20 -23 -20h-82q-17 0 -14 20z" />
<glyph unicode="&#x22;" horiz-adv-x="649" d="M244 1057l55 315q3 21 23 21h84q20 0 16 -21l-55 -315q-3 -21 -23 -21h-84q-20 0 -16 21zM502 1057l55 315q3 21 23 21h84q20 0 16 -21l-55 -315q-3 -21 -23 -21h-84q-20 0 -16 21z" />
<glyph unicode="#" horiz-adv-x="1011" d="M51 463l15 78q3 20 22 20h164l92 299h-151q-9 0 -14 6t-3 15l12 77q4 21 25 21h168l121 393q7 21 24 21h88q22 0 15 -21l-121 -393h264l121 393q7 21 22 21h89q10 0 14.5 -6t1.5 -15l-121 -393h152q19 0 16 -21l-14 -77q-3 -21 -21 -21h-170l-92 -299h158q21 0 18 -20 l-14 -78q-4 -21 -23 -21h-176l-129 -422q-7 -20 -24 -20h-88q-22 0 -15 20l129 422h-264l-129 -422q-7 -20 -25 -20h-88q-21 0 -14 20l129 422h-145q-9 0 -14.5 6t-4.5 15zM379 561h264l92 299h-264z" />
<glyph unicode="$" d="M61 119q-13 13 2 28l82 91q14 14 29 2q113 -101 258 -111l90 502q-143 27 -218 112t-75 213q0 190 120.5 318t309.5 139l19 103q1 9 7.5 14.5t14.5 5.5h56q8 0 12.5 -5.5t1.5 -14.5l-18 -105q152 -13 270 -106q13 -13 2 -29l-72 -86q-14 -17 -28 -6q-97 65 -199 76 l-84 -482q151 -26 226 -107t75 -208q0 -204 -121.5 -333.5t-318.5 -147.5l-19 -105q-3 -20 -24 -20h-53q-20 0 -17 20l17 103q-203 11 -345 139zM391 979q0 -71 37 -116.5t123 -67.5l82 465q-105 -14 -173.5 -92.5t-68.5 -188.5zM528 133q115 20 182.5 104t67.5 197 q0 67 -38.5 111.5t-127.5 68.5z" />
<glyph unicode="%" horiz-adv-x="1531" d="M230 -16.5q-3 6.5 3 14.5l1024 1397q14 20 31 20h90q9 0 11.5 -6.5t-3.5 -13.5l-1021 -1397q-15 -21 -33 -21h-90q-9 0 -12 6.5zM231 870q0 58 25 194t51 189q76 156 250 156q90 0 147.5 -52t57.5 -143q0 -59 -24 -195t-50 -188q-76 -155 -250 -155q-91 0 -149 51.5 t-58 142.5zM356 883q0 -43 26 -69t71 -26q78 0 118 76q20 38 44 164t24 174q0 43 -25.5 68.5t-70.5 25.5q-82 0 -119 -75q-20 -38 -44 -164t-24 -174zM858 178q0 58 25 193t51 188q76 156 250 156q90 0 147.5 -52t57.5 -143q0 -59 -24 -194t-50 -187q-75 -157 -250 -157 q-91 0 -149 52t-58 144zM981 190q0 -45 25.5 -70.5t70.5 -25.5q80 0 119 76q22 40 46 165t24 173q0 43 -26.5 68.5t-72.5 25.5q-77 0 -118 -74q-20 -40 -44 -166t-24 -172z" />
<glyph unicode="&#x26;" horiz-adv-x="1234" d="M86 276q0 127 78 244t272 258q-59 107 -84.5 172t-25.5 123q0 144 107 243t257 99q116 0 186 -69.5t70 -174.5q0 -106 -67.5 -202t-247.5 -224l190 -337l174 182q13 13 29 4l68 -72q13 -13 -2 -28l-201 -211l47 -82q15 -27 32 -37t44 -10h39q19 0 16 -21l-20 -113 q-3 -20 -23 -20h-47q-62 0 -95 19t-63 75l-41 74q-105 -100 -195.5 -145.5t-193.5 -45.5q-140 0 -221.5 83t-81.5 216zM244 297q0 -76 46 -122t128 -46q67 0 131.5 37t159.5 127l-203 362q-143 -103 -202.5 -184.5t-59.5 -173.5zM483 1090q0 -39 16.5 -84t63.5 -136 q135 96 182.5 157.5t47.5 119.5q0 59 -33.5 93t-93.5 34q-78 0 -130.5 -53.5t-52.5 -130.5z" />
<glyph unicode="'" horiz-adv-x="391" d="M244 1057l55 315q3 21 23 21h84q8 0 12.5 -6t3.5 -15l-55 -315q-3 -21 -23 -21h-84q-20 0 -16 21z" />
<glyph unicode="(" horiz-adv-x="573" d="M152 403q0 287 104.5 566.5t298.5 525.5q15 21 33 21h69q9 0 12 -6t-3 -15q-361 -564 -361 -1151q0 -263 70 -496q3 -9 -1.5 -14.5t-13.5 -5.5h-69q-18 0 -27 20q-112 257 -112 555z" />
<glyph unicode=")" horiz-adv-x="573" d="M-14 -152q360 562 360 1151q0 263 -70 496q-3 9 1.5 15t13.5 6h69q18 0 27 -21q113 -253 113 -555q0 -287 -105 -566.5t-299 -525.5q-14 -20 -33 -20h-69q-21 0 -8 20z" />
<glyph unicode="*" horiz-adv-x="686" d="M174 987q-7 18 14 27l172 92l-137 92q-18 11 -4 29l33 47q14 18 31 4l137 -94l31 188q2 9 8.5 15t15.5 6h55q20 0 17 -21l-35 -184l170 94q22 12 29 -6l18 -53q7 -17 -12 -27l-174 -94l139 -92q8 -5 9 -13t-5 -14l-35 -49q-11 -18 -28 -4l-140 92l-30 -186 q-1 -9 -8.5 -15t-16.5 -6h-55q-9 0 -14 6t-3 15l33 182l-166 -90q-22 -12 -28 6z" />
<glyph unicode="+" d="M123 512v106q0 21 20 21h320q12 0 12 12v324q0 20 21 20h108q21 0 21 -20v-324q0 -12 12 -12h319q9 0 15 -6t6 -15v-106q0 -20 -21 -20h-319q-12 0 -12 -13v-321q0 -9 -6 -15t-15 -6h-108q-9 0 -15 6t-6 15v321q0 13 -12 13h-320q-20 0 -20 20z" />
<glyph unicode="," horiz-adv-x="462" d="M41 -199l65 389q4 21 23 21h133q20 0 17 -21l-31 -184q-5 -26 -19 -45l-145 -166q-11 -14 -27 -14q-19 0 -16 20z" />
<glyph unicode="-" horiz-adv-x="739" d="M102 492l19 108q3 18 24 18h519q19 0 16 -20l-16 -109q-3 -18 -25 -18h-520q-9 0 -14 6t-3 15z" />
<glyph unicode="." horiz-adv-x="462" d="M68 20l26 170q4 21 23 21h145q20 0 17 -21l-27 -170q-3 -20 -23 -20h-145q-19 0 -16 20z" />
<glyph unicode="/" horiz-adv-x="800" d="M33 -17q-3 6 2 15l682 1397q9 20 28 20h105q20 0 10 -20l-680 -1397q-9 -21 -28 -21h-107q-9 0 -12 6z" />
<glyph unicode="0" d="M127 295q0 118 60.5 445.5t105.5 420.5q124 254 403 254q152 0 239 -85t87 -232q0 -118 -60.5 -446t-105.5 -421q-121 -254 -401 -254q-153 0 -240.5 85.5t-87.5 232.5zM293 307q0 -82 45.5 -131t134.5 -49q155 0 229 147q38 76 96 391t58 420q0 82 -45.5 131.5 t-134.5 49.5q-157 0 -227 -146q-39 -75 -97.5 -391t-58.5 -422z" />
<glyph unicode="1" d="M342 1036l23 142q3 19 18 28l264 174q19 13 35 13h115q9 0 14 -6t4 -15l-240 -1352q-3 -20 -22 -20h-121q-21 0 -18 20l207 1168h-5l-254 -166q-9 -6 -16 -2t-4 16z" />
<glyph unicode="2" d="M74 20l16 101q3 13 19 29l591 643q77 83 112.5 150.5t35.5 141.5q0 81 -47.5 130t-130.5 49q-93 0 -160 -55.5t-100 -153.5q-7 -20 -25 -17l-113 25q-16 3 -10 22q18 65 53.5 122.5t87 105t124.5 75t157 27.5q150 0 241 -86.5t91 -220.5q0 -109 -47.5 -202.5 t-149.5 -203.5l-512 -548v-4h522q9 0 14.5 -6t4.5 -15l-21 -109q-3 -20 -22 -20h-713q-21 0 -18 20z" />
<glyph unicode="3" d="M102 270q-3 19 19 25l117 31q17 3 20 -15q28 -182 209 -182q122 0 203.5 90.5t81.5 220.5q0 96 -54.5 151.5t-152.5 55.5h-58q-19 0 -16 21l18 110q3 19 23 19h55q117 0 196 84.5t79 203.5q0 81 -47.5 130t-132.5 49q-91 0 -153.5 -48.5t-96.5 -125.5q-7 -21 -25 -17 l-111 29q-17 3 -10 24q42 123 155.5 206t268.5 83q151 0 235.5 -81t84.5 -216q0 -124 -62 -225.5t-168 -155.5v-4q60 -28 100 -96.5t40 -165.5q0 -217 -131 -355.5t-338 -138.5q-158 0 -249.5 82t-99.5 211z" />
<glyph unicode="4" d="M66 268l16 105q1 7 12 28l600 975q11 17 31 17h127q9 0 12 -5.5t-2 -13.5l-590 -973v-4h349q13 0 16 13l65 368q4 21 23 21h123q9 0 14 -6t4 -15l-65 -368q-3 -13 10 -13h121q19 0 16 -20l-16 -109q-3 -18 -25 -18h-123q-11 0 -14 -12l-39 -218q-3 -20 -22 -20h-123 q-20 0 -17 20l39 218q3 12 -10 12h-516q-19 0 -16 18z" />
<glyph unicode="5" d="M135 270q0 22 17 25l118 27q18 3 21 -17q3 -80 50.5 -128t137.5 -48q153 0 223 139q29 56 48.5 154t19.5 164q0 182 -174 182q-77 0 -137.5 -39t-87.5 -96q-9 -21 -27 -21h-113q-17 0 -14 21l131 739q4 21 21 21h669q9 0 14.5 -6t4.5 -15l-19 -108q-4 -21 -24 -21h-527 q-11 0 -14 -12l-74 -408h4q35 39 99 67t143 28q140 0 214.5 -74.5t74.5 -220.5q0 -85 -24.5 -212.5t-61.5 -205.5q-111 -228 -385 -228q-152 0 -241 81.5t-87 211.5z" />
<glyph unicode="6" d="M109 313q0 196 145 406l457 659q10 15 28 15h131q22 0 11 -21l-402 -581l4 -3q48 33 144 33q140 0 226.5 -87t86.5 -234q0 -106 -35 -201.5t-97 -167t-154 -113t-199 -41.5q-157 0 -251.5 90t-94.5 246zM272 336q0 -94 54 -150.5t147 -56.5q129 0 215 99t86 237 q0 95 -54.5 152t-148.5 57q-129 0 -214 -100t-85 -238z" />
<glyph unicode="7" d="M204.5 6q-2.5 6 2.5 17l676 1216v4h-414q-11 0 -14 -12l-33 -178q-4 -21 -23 -21h-114q-9 0 -14 6t-3 15l58 319q4 21 22 21h711q21 0 18 -21l-20 -115q-3 -14 -10 -26l-674 -1213q-10 -18 -33 -18h-125q-8 0 -10.5 6z" />
<glyph unicode="8" d="M100 305q0 135 68.5 251.5t189.5 176.5l2 4q-49 32 -79.5 91.5t-30.5 136.5q0 84 29.5 163.5t84.5 144t141.5 103.5t190.5 39q151 0 237.5 -87t86.5 -222q0 -116 -58 -215.5t-159 -157.5l-2 -4q64 -37 101.5 -105t37.5 -159q0 -131 -59.5 -242t-172 -178.5t-253.5 -67.5 q-162 0 -258.5 90t-96.5 238zM264 334q0 -92 56 -148.5t153 -56.5q127 0 215 93t88 229q0 92 -56 149t-153 57q-126 0 -214.5 -94t-88.5 -229zM414 987q0 -80 47.5 -130t130.5 -50q112 0 188 81t76 197q0 79 -48 129t-132 50q-110 0 -186 -80.5t-76 -196.5z" />
<glyph unicode="9" d="M209 905q0 134 57.5 249t170.5 188t259 73q157 0 251.5 -90t94.5 -246q0 -190 -147 -403l-457 -662q-11 -14 -28 -14h-129q-10 0 -14 6t1 14l400 582l-4 2q-45 -31 -140 -31q-140 0 -227.5 92t-87.5 240zM377 930q0 -95 54 -153t149 -58q129 0 214 100t85 234 q0 97 -53.5 154t-149.5 57q-130 0 -214.5 -99.5t-84.5 -234.5z" />
<glyph unicode=":" horiz-adv-x="462" d="M68 20l26 170q4 21 23 21h145q20 0 17 -21l-27 -170q-3 -20 -23 -20h-145q-19 0 -16 20zM203 791l28 170q3 20 23 20h145q20 0 17 -20l-27 -170q-3 -21 -22 -21h-146q-9 0 -14 6t-4 15z" />
<glyph unicode=";" horiz-adv-x="462" d="M35 -199l65 389q4 21 23 21h133q9 0 14 -6t4 -15l-30 -184q-4 -22 -21 -45l-145 -166q-11 -14 -27 -14q-8 0 -12.5 5.5t-3.5 14.5zM203 791l28 170q3 20 23 20h145q20 0 17 -20l-27 -170q-3 -21 -22 -21h-146q-9 0 -14 6t-4 15z" />
<glyph unicode="&#x3c;" d="M113 520v90q0 19 20 29l813 332q21 7 21 -13v-122q0 -18 -21 -27l-622 -242v-4l622 -241q21 -9 21 -27v-123q0 -19 -21 -12l-813 332q-20 10 -20 28z" />
<glyph unicode="=" d="M102 309v109q0 20 21 20h813q20 0 20 -20v-109q0 -20 -20 -20h-813q-21 0 -21 20zM102 713v108q0 9 6 15t15 6h813q20 0 20 -21v-108q0 -21 -20 -21h-813q-9 0 -15 6t-6 15z" />
<glyph unicode="&#x3e;" d="M115 172v123q0 18 20 27l621 241v4l-621 242q-20 9 -20 27v122q0 20 20 13l813 -332q21 -11 21 -29v-90q0 -18 -21 -28l-813 -332q-20 -7 -20 12z" />
<glyph unicode="?" horiz-adv-x="894" d="M199 1092q46 150 158.5 236.5t265.5 86.5q138 0 219.5 -78t81.5 -204q0 -84 -38 -163.5t-122 -170.5l-158 -185q-39 -42 -54.5 -71.5t-25.5 -83.5l-16 -68q-3 -20 -23 -20h-120q-20 0 -17 20l17 84q10 61 30.5 103.5t59.5 85.5l159 184q79 86 110.5 142.5t31.5 117.5 q0 72 -43.5 114t-118.5 42q-83 0 -147 -53.5t-99 -145.5q-6 -19 -24 -16l-117 20q-17 3 -10 23zM279 20l26 170q3 21 23 21h145q19 0 16 -21l-26 -170q-3 -20 -23 -20h-145q-19 0 -16 20z" />
<glyph unicode="@" horiz-adv-x="1777" d="M104 410q0 276 113 490t321.5 333t481.5 119q301 0 486.5 -178t185.5 -469q0 -173 -44.5 -304t-136.5 -208.5t-223 -77.5q-83 0 -138.5 39.5t-70.5 107.5h-2q-95 -147 -284 -147q-110 0 -182 71.5t-72 198.5q0 87 21.5 194.5t57.5 180.5q99 203 308 203q83 0 135.5 -33 t73.5 -84h4l12 76q1 9 7.5 14.5t12.5 5.5h101q17 0 14 -20l-88 -504q-16 -88 16.5 -132t94.5 -44q79 0 136 62.5t84 161.5t27 220q0 250 -152 394.5t-407 144.5q-222 0 -394.5 -103.5t-266.5 -287.5t-94 -418q0 -251 150.5 -398t406.5 -147q131 0 223.5 23.5t198.5 72.5 q18 7 24 -10l29 -84q7 -17 -14 -27q-104 -55 -218.5 -80.5t-263.5 -25.5q-302 0 -488 184.5t-186 485.5zM676 410q0 -165 155 -168q140 0 205 133q28 56 45 141.5t17 151.5q0 77 -39.5 122t-116.5 46q-139 0 -205 -134q-26 -53 -43.5 -141t-17.5 -151z" />
<glyph unicode="A" horiz-adv-x="1200" d="M-23 20l705 1352q10 21 29 21h123q18 0 22 -21l219 -1352q3 -20 -16 -20h-127q-20 0 -23 20l-49 312h-543l-159 -312q-9 -20 -27 -20h-143q-21 0 -11 20zM397 487h441l-101 648h-6z" />
<glyph unicode="B" horiz-adv-x="1193" d="M92 20l240 1352q4 21 22 21h469q171 0 259.5 -78.5t88.5 -220.5q0 -271 -243 -373v-4q62 -21 107.5 -86t45.5 -164q0 -219 -131 -343t-375 -124h-464q-9 0 -14.5 5.5t-4.5 14.5zM289 168q-3 -12 8 -12h315q135 0 217 79.5t82 206.5q0 87 -55 137t-160 50h-313 q-11 0 -14 -13zM401 799q-3 -13 9 -13h303q127 0 205.5 77t78.5 196q0 84 -52.5 131t-149.5 47h-306q-11 0 -14 -12z" />
<glyph unicode="C" horiz-adv-x="1114" d="M123 385q0 115 47 363t98 352q79 163 199 239t291 76q141 0 239.5 -75.5t135.5 -211.5q6 -16 -13 -22l-112 -53q-22 -7 -25 10q-62 192 -246 192q-207 0 -313 -213q-44 -93 -85.5 -316.5t-41.5 -324.5q0 -125 64.5 -194.5t187.5 -69.5q181 0 305 191q10 17 27 10l106 -57 q15 -6 4 -25q-88 -145 -202.5 -212t-266.5 -67q-184 0 -291.5 106.5t-107.5 301.5z" />
<glyph unicode="D" horiz-adv-x="1232" d="M92 20l240 1352q4 21 22 21h449q189 0 284 -96t95 -279q0 -143 -45 -386.5t-103 -361.5q-71 -148 -184.5 -209t-290.5 -61h-448q-9 0 -14.5 5.5t-4.5 14.5zM289 172q-3 -12 10 -12h250q125 0 208 46.5t134 147.5q42 87 83.5 303t41.5 326q0 131 -69 190.5t-208 59.5h-250 q-12 0 -14 -12z" />
<glyph unicode="E" horiz-adv-x="1105" d="M92 20l240 1352q4 21 22 21h799q9 0 14 -6t4 -15l-20 -119q-3 -20 -25 -20h-637q-11 0 -14 -12l-74 -424q-3 -13 11 -13h540q20 0 17 -20l-21 -119q-3 -20 -24 -20h-541q-11 0 -14 -13l-80 -440q-3 -12 10 -12h637q20 0 16 -21l-20 -119q-3 -20 -23 -20h-798 q-9 0 -14.5 5.5t-4.5 14.5z" />
<glyph unicode="F" horiz-adv-x="1091" d="M92 20l240 1352q4 21 22 21h799q9 0 14 -6t4 -15l-20 -119q-3 -20 -25 -20h-637q-11 0 -14 -12l-78 -439q0 -12 11 -12h540q9 0 14.5 -5.5t4.5 -14.5l-21 -119q-4 -21 -24 -21h-541q-11 0 -14 -12l-105 -578q-3 -20 -20 -20h-131q-9 0 -14.5 5.5t-4.5 14.5z" />
<glyph unicode="G" horiz-adv-x="1212" d="M123 385q0 115 47 364t98 355q79 160 205.5 235.5t308.5 75.5q145 0 250.5 -77t136.5 -199q3 -21 -12 -27l-115 -51q-18 -6 -22 10q-67 184 -266 184q-222 0 -328 -213q-46 -92 -87.5 -315t-41.5 -326q0 -125 67.5 -194.5t190.5 -69.5q223 0 324 207q45 88 67 227 q3 13 -10 13h-260q-17 0 -14 20l18 111q3 20 22 20h426q18 0 15 -20l-19 -103q-14 -87 -38.5 -179t-49.5 -144q-79 -161 -203.5 -236.5t-304.5 -75.5q-185 0 -295 107t-110 301z" />
<glyph unicode="H" horiz-adv-x="1284" d="M92 20l240 1352q4 21 22 21h131q9 0 14 -6t3 -15l-103 -575q-3 -13 11 -13h587q12 0 15 13l102 575q4 21 21 21h131q9 0 14 -6t4 -15l-240 -1352q-3 -20 -22 -20h-131q-20 0 -17 20l105 592q3 13 -10 13h-586q-11 0 -14 -13l-107 -592q-3 -20 -20 -20h-131 q-9 0 -14.5 5.5t-4.5 14.5z" />
<glyph unicode="I" horiz-adv-x="501" d="M92 20l240 1352q4 21 22 21h131q9 0 14 -6t3 -15l-240 -1352q-3 -20 -20 -20h-131q-9 0 -14.5 5.5t-4.5 14.5z" />
<glyph unicode="J" horiz-adv-x="968" d="M16 127q-7 15 7 29l102 71q17 13 31 -4q80 -84 184 -84q243 0 299 301l164 932q3 21 22 21h131q20 0 17 -21l-166 -932q-44 -251 -161.5 -357t-319.5 -106q-95 0 -182.5 44t-127.5 106z" />
<glyph unicode="K" horiz-adv-x="1214" d="M92 20l240 1352q4 21 22 21h131q9 0 14 -6t3 -15l-127 -713l692 715q19 19 37 19h162q8 0 10.5 -8t-4.5 -17l-522 -530l303 -815q3 -9 -2 -16t-15 -7h-131q-18 0 -26 18l-254 691l-295 -303l-68 -386q-3 -20 -20 -20h-131q-9 0 -14.5 5.5t-4.5 14.5z" />
<glyph unicode="L" horiz-adv-x="1054" d="M92 20l240 1352q4 21 22 21h131q9 0 14 -6t3 -15l-213 -1200q-3 -12 10 -12h639q8 0 12 -6t2 -15l-20 -119q-3 -20 -21 -20h-800q-9 0 -14.5 5.5t-4.5 14.5z" />
<glyph unicode="M" horiz-adv-x="1486" d="M92 20l240 1352q4 21 22 21h113q24 0 27 -21l239 -938h6l568 938q12 21 30 21h131q9 0 14.5 -6t4.5 -15l-240 -1352q-3 -20 -22 -20h-119q-19 0 -16 20l176 984h-6l-482 -781q-15 -24 -39 -24h-73q-24 0 -33 26l-201 781h-6l-176 -986q-3 -20 -23 -20h-116 q-9 0 -14.5 5.5t-4.5 14.5z" />
<glyph unicode="N" horiz-adv-x="1284" d="M92 20l240 1352q4 21 22 21h123q20 0 29 -21l422 -1063h8l190 1063q4 21 23 21h119q20 0 16 -21l-237 -1352q-3 -20 -23 -20h-123q-20 0 -29 20l-426 1063h-8l-188 -1063q-3 -20 -23 -20h-116q-9 0 -14.5 5.5t-4.5 14.5z" />
<glyph unicode="O" horiz-adv-x="1214" d="M123 385q0 115 47 364t98 355q79 160 203.5 235.5t304.5 75.5q186 0 295 -106t109 -301q0 -115 -47.5 -364.5t-100.5 -354.5q-77 -160 -201.5 -236t-304.5 -76q-186 0 -294.5 106.5t-108.5 301.5zM297 401q0 -125 67 -194.5t189 -69.5q218 0 324 213q46 92 87.5 315 t41.5 326q0 125 -67 194.5t-189 69.5q-218 0 -324 -213q-46 -92 -87.5 -315t-41.5 -326z" />
<glyph unicode="P" horiz-adv-x="1163" d="M94 20l238 1352q4 21 22 21h473q171 0 266 -87t95 -239q0 -238 -139 -369t-365 -131h-309q-15 0 -15 -12l-96 -535q-3 -20 -22 -20h-131q-20 0 -17 20zM391 739q-3 -12 10 -12h297q143 0 231.5 84t88.5 229q0 91 -58.5 142t-166.5 51h-301q-12 0 -15 -12z" />
<glyph unicode="Q" horiz-adv-x="1218" d="M123 385q0 115 47 364t98 355q79 160 203.5 235.5t304.5 75.5q186 0 295 -106t109 -301q0 -115 -47.5 -364.5t-100.5 -354.5q-46 -91 -96 -146l90 -147q11 -18 -8 -31l-90 -57q-9 -6 -19 -4.5t-14 10.5l-78 131q-124 -68 -291 -68q-186 0 -294.5 106.5t-108.5 301.5z M297 401q0 -125 67 -194.5t189 -69.5q103 0 180 47l-106 178q-11 18 8 31l90 58q9 6 19 4t14 -11l88 -147q22 36 31 53q46 92 87.5 315t41.5 326q0 125 -67 194.5t-189 69.5q-218 0 -324 -213q-46 -92 -87.5 -315t-41.5 -326z" />
<glyph unicode="R" horiz-adv-x="1214" d="M92 20l240 1352q4 21 22 21h480q166 0 262 -86.5t96 -235.5q0 -171 -95 -293t-253 -164l178 -589q4 -10 -0.5 -17.5t-13.5 -7.5h-131q-19 0 -25 20l-170 576h-303q-14 0 -14 -12l-103 -564q-3 -20 -20 -20h-131q-9 0 -14.5 5.5t-4.5 14.5zM395 766q-3 -12 11 -12h311 q138 2 220.5 80.5t82.5 212.5q0 90 -56.5 138t-160.5 48h-314q-11 0 -14 -12z" />
<glyph unicode="S" horiz-adv-x="1165" d="M53 152q-10 13 2 28l97 96q17 17 28 3q148 -140 352 -140q153 0 249 83.5t96 211.5q0 80 -51 121.5t-185 62.5l-63 11q-338 54 -338 332q0 204 139.5 329t359.5 125q114 0 218 -37t171 -96q14 -12 0 -29l-75 -94q-13 -17 -29 -4q-142 100 -307 100q-131 0 -215 -78.5 t-84 -195.5q0 -79 54 -124t185 -66l64 -11q170 -28 252 -105.5t82 -211.5q0 -223 -152.5 -354.5t-404.5 -131.5q-132 0 -256.5 51t-188.5 124z" />
<glyph unicode="T" horiz-adv-x="1052" d="M186 1253l21 119q3 21 22 21h930q9 0 14.5 -6t4.5 -15l-21 -119q-3 -20 -24 -20h-369q-9 0 -12 -12l-213 -1201q-3 -20 -23 -20h-131q-8 0 -12.5 5.5t-3.5 14.5l213 1201q3 12 -11 12h-368q-20 0 -17 20z" />
<glyph unicode="U" horiz-adv-x="1255" d="M166 492l156 880q4 21 22 21h131q9 0 14 -6t3 -15l-156 -887q-9 -52 -9 -96q1 -101 47 -163q68 -90 214 -89q146 0 231.5 78t120.5 270l156 887q4 21 22 21h129q9 0 14.5 -6t4.5 -15l-160 -901q-46 -265 -176.5 -379.5t-354.5 -114.5q-227 1 -339 137q-81 99 -81 254 q0 58 11 124z" />
<glyph unicode="V" horiz-adv-x="1112" d="M205 1368q-3 25 18 25h125q24 0 27 -21l149 -1091h4l529 1091q12 21 33 21h133q10 0 13.5 -6.5t-1.5 -18.5l-672 -1348q-13 -20 -26 -20h-115q-18 0 -21 20z" />
<glyph unicode="W" horiz-adv-x="1628" d="M213 1372q0 21 20 21h123q9 0 15 -6t6 -15l51 -1050h4l469 1050q11 21 27 21h96q16 0 20 -21l99 -1050h4l422 1050q6 21 26 21h134q21 0 14 -21l-565 -1352q-7 -20 -25 -20h-104q-18 0 -21 20l-96 1059h-4l-477 -1059q-10 -20 -27 -20h-107q-17 0 -20 20z" />
<glyph unicode="X" horiz-adv-x="1103" d="M-23.5 8q-2.5 8 3.5 17l528 702l-254 641q-5 9 -0.5 17t14.5 8h144q16 0 26 -19l187 -479h2l360 479q16 19 33 19h151q9 0 12 -8t-3 -17l-482 -641l279 -702q4 -9 -0.5 -17t-13.5 -8h-142q-20 0 -26 18l-209 541h-4l-408 -541q-15 -18 -29 -18h-157q-9 0 -11.5 8z" />
<glyph unicode="Y" horiz-adv-x="1042" d="M205 1370q-2 10 3 16.5t15 6.5h129q21 0 27 -21l192 -608h7l409 608q15 21 33 21h133q12 0 15.5 -7t-1.5 -16l-536 -801l-99 -549q-3 -20 -22 -20h-129q-9 0 -14.5 5.5t-4.5 14.5l99 551z" />
<glyph unicode="Z" horiz-adv-x="1056" d="M23 20l20 119q2 9 14 29l842 1063v2h-616q-20 0 -17 20l21 119q3 21 22 21h801q20 0 16 -21l-18 -112q-3 -15 -14 -29l-846 -1069v-2h645q19 0 16 -21l-20 -119q-3 -20 -25 -20h-823q-21 0 -18 20z" />
<glyph unicode="[" horiz-adv-x="557" d="M59 -152l291 1647q4 21 23 21h280q8 0 12 -6t3 -15l-17 -92q-3 -21 -20 -21h-137q-15 0 -15 -12l-248 -1397q-3 -12 11 -12h137q17 0 14 -20l-14 -93q-1 -9 -8 -14.5t-15 -5.5h-280q-20 0 -17 20z" />
<glyph unicode="\" horiz-adv-x="800" d="M270 1395q0 20 17 20h104q20 0 23 -20l186 -1397q4 -21 -14 -21h-105q-19 0 -22 21z" />
<glyph unicode="]" horiz-adv-x="557" d="M-31 -152l17 93q3 20 22 20h139q10 0 13 12l248 1397q3 12 -9 12h-137q-9 0 -14 6t-4 15l14 92q4 21 25 21h280q9 0 14 -6t3 -15l-291 -1647q-3 -20 -23 -20h-280q-20 0 -17 20z" />
<glyph unicode="^" d="M124.5 565q-3.5 6 0.5 15l354 792q11 21 29 21h84q18 0 29 -21l354 -792q4 -9 -0.5 -15t-13.5 -6h-109q-20 0 -29 21l-272 610h-4l-273 -610q-9 -21 -28 -21h-109q-9 0 -12.5 6z" />
<glyph unicode="_" horiz-adv-x="942" d="M-115 -264l19 106h934l-19 -106h-934z" />
<glyph unicode="`" horiz-adv-x="837" d="M459 1413q-4 7 0.5 14t13.5 7h119q20 0 29 -21l106 -252q3 -9 -2 -14.5t-14 -5.5h-84q-21 0 -33 20z" />
<glyph unicode="a" horiz-adv-x="1019" d="M80 225q0 169 111 257.5t315 88.5h215q11 0 14 13l15 80q6 34 6 62q0 60 -27 90q-40 44 -168 44q-144 0 -242 -76q-19 -13 -28 2l-37 93q-7 17 6 26q62 45 150.5 72t187.5 27q196 0 268 -77q50 -53 51 -155q0 -45 -10 -100l-114 -652q-3 -20 -23 -20h-113q-19 0 -16 20 l14 89h-2q-96 -132 -303 -132q-121 0 -195.5 67.5t-74.5 180.5zM242 248q0 -63 43 -98t129 -35q111 0 185 53.5t89 146.5l21 115q3 12 -11 12h-188q-141 0 -204.5 -49t-63.5 -145z" />
<glyph unicode="b" horiz-adv-x="1056" d="M88 20l240 1352q4 21 22 21h123q19 0 16 -21l-88 -506h2q104 138 293 138q136 0 211.5 -86.5t75.5 -235.5q0 -108 -29.5 -250.5t-70.5 -226.5q-113 -228 -363 -228q-98 0 -160.5 40t-89.5 104h-2l-18 -101q-3 -20 -21 -20h-123q-21 0 -18 20zM315 328q0 -95 47 -148 t140 -53q159 0 235 156q32 63 55 176t23 192q0 205 -184 205q-162 0 -242 -162q-25 -50 -49.5 -171.5t-24.5 -194.5z" />
<glyph unicode="c" horiz-adv-x="919" d="M94 315q0 95 24 218.5t68 216.5q60 124 165 189t245 65q214 0 291 -177q6 -17 -8 -28l-88 -64q-19 -11 -29 6q-31 60 -73.5 87.5t-108.5 27.5q-74 0 -138.5 -42.5t-103.5 -119.5q-35 -72 -56.5 -178t-21.5 -172q0 -217 189 -217q123 0 229 117q14 17 27 4l73 -76 q13 -13 0 -29q-64 -79 -154.5 -122.5t-199.5 -43.5q-156 0 -243 89.5t-87 248.5z" />
<glyph unicode="d" horiz-adv-x="1056" d="M92 299q0 108 30 250.5t71 226.5q113 228 362 228q98 0 160.5 -39.5t89.5 -102.5h2l88 510q3 21 23 21h122q9 0 14.5 -6t4.5 -15l-238 -1352q-3 -20 -22 -20h-125q-20 0 -17 20l17 97h-2q-106 -140 -293 -140q-136 0 -211.5 86.5t-75.5 235.5zM260 332 q0 -100 43.5 -152.5t140.5 -52.5q161 0 242 160q25 51 49.5 172.5t24.5 193.5q0 95 -47 149t-140 54q-156 0 -237 -158q-31 -62 -53.5 -175t-22.5 -191z" />
<glyph unicode="e" horiz-adv-x="993" d="M94 322q0 102 22.5 221t63.5 202q123 259 414 259q146 0 237 -87.5t91 -246.5q0 -68 -25 -207q-1 -9 -8.5 -15t-16.5 -6h-600q-11 0 -14 -12q-6 -33 -6 -84q0 -112 52 -165.5t157 -53.5q149 0 266 117q16 13 31 2l63 -72q15 -14 -2 -31q-74 -75 -172.5 -120.5 t-212.5 -45.5q-166 0 -253 90.5t-87 254.5zM289 584q-3 -13 8 -13h442q14 0 17 13q8 39 8 82q0 194 -191 194q-81 0 -145 -40t-100 -115q-26 -53 -39 -121z" />
<glyph unicode="f" horiz-adv-x="624" d="M119 20l145 818q3 12 -8 12h-84q-17 0 -14 20l14 91q3 20 23 20h84q11 0 14 12l14 90q30 168 109.5 239t230.5 71h72q19 0 16 -21l-18 -108q-3 -21 -23 -21h-51q-88 0 -121.5 -29t-50.5 -124l-18 -97q-3 -12 8 -12h184q9 0 14.5 -5.5t4.5 -14.5l-17 -91q-3 -20 -24 -20 h-183q-9 0 -12 -12l-147 -818q-3 -20 -21 -20h-125q-8 0 -12.5 5.5t-3.5 14.5z" />
<glyph unicode="g" horiz-adv-x="1038" d="M35 -238q-14 20 4 31l86 74q20 13 31 -4q86 -103 204 -103q238 0 283 273l23 112h-2q-95 -135 -281 -135q-139 0 -211 84.5t-72 229.5q0 93 25 225t65 217q116 238 361 238q95 0 154.5 -38.5t82.5 -103.5h3l18 99q3 20 22 20h121q20 0 17 -20l-162 -920 q-42 -230 -154.5 -331t-310.5 -101q-103 0 -184 41.5t-123 111.5zM264 358q0 -198 182 -198q151 0 224 149q30 59 52.5 167.5t22.5 178.5q0 95 -45 148t-135 53q-146 0 -225 -154q-34 -68 -55 -165.5t-21 -178.5z" />
<glyph unicode="h" horiz-adv-x="1069" d="M88 20l240 1352q4 21 22 21h123q19 0 16 -21l-90 -504h2q48 63 122.5 99.5t166.5 36.5q154 0 224 -100q49 -70 49 -173q0 -45 -9 -96l-110 -615q-3 -20 -23 -20h-123q-8 0 -12.5 5.5t-3.5 14.5l102 576q8 44 8 80q0 69 -28 113q-42 67 -146 67q-95 0 -169.5 -69.5 t-94.5 -178.5l-104 -588q-3 -20 -21 -20h-125q-8 0 -12.5 5.5t-3.5 14.5z" />
<glyph unicode="i" horiz-adv-x="487" d="M88 20l166 941q3 20 22 20h125q20 0 17 -20l-168 -941q-3 -20 -21 -20h-123q-21 0 -18 20zM297 1231l25 141q4 21 22 21h135q9 0 14 -6t3 -15l-25 -141q-3 -21 -25 -21h-133q-19 0 -16 21z" />
<glyph unicode="j" horiz-adv-x="487" d="M-150 -348l19 108q3 21 25 21h26q71 0 104 29t46 108l184 1043q3 20 22 20h125q20 0 17 -20l-185 -1041q-30 -169 -99.5 -229t-227.5 -60h-39q-9 0 -14 6t-3 15zM297 1231l25 141q4 21 22 21h135q9 0 14 -6t3 -15l-25 -141q-3 -21 -25 -21h-133q-19 0 -16 21z" />
<glyph unicode="k" horiz-adv-x="1007" d="M88 20l240 1352q4 21 22 21h123q19 0 16 -21l-151 -854l440 445q18 18 39 18h150q9 0 11.5 -6.5t-3.5 -13.5l-352 -351l243 -590q3 -8 -2 -14t-14 -6h-129q-18 0 -27 20l-192 478l-207 -217l-45 -261q-3 -20 -23 -20h-123q-19 0 -16 20z" />
<glyph unicode="l" horiz-adv-x="542" d="M125 244l205 1128q4 21 22 21h123q9 0 14.5 -6t4.5 -15l-207 -1126q-3 -21 -4 -37q0 -29 11 -45q16 -24 66 -23h37q20 0 17 -20l-17 -111q-3 -20 -24 -20h-66q-120 0 -162 61q-28 40 -28 111q0 37 8 82z" />
<glyph unicode="m" horiz-adv-x="1660" d="M88 20l166 941q3 20 22 20h123q20 0 17 -20l-17 -93h2q46 62 120.5 99t166.5 37q198 0 250 -158h2q128 158 334 158q162 0 232 -99q49 -69 49 -174q0 -45 -9 -96l-110 -615q-3 -20 -23 -20h-121q-8 0 -12.5 5.5t-3.5 14.5l102 576q8 44 8 80q0 69 -28 113q-42 67 -146 67 q-95 0 -170.5 -68.5t-95.5 -179.5l-102 -588q-3 -20 -23 -20h-123q-21 0 -18 20l102 576q9 45 9 83q0 65 -27 109q-42 68 -148 68q-94 0 -168.5 -69.5t-93.5 -178.5l-106 -588q-3 -20 -21 -20h-123q-19 0 -16 20z" />
<glyph unicode="n" horiz-adv-x="1069" d="M88 20l166 941q3 20 22 20h125q20 0 17 -20l-19 -93h2q48 63 122.5 99.5t166.5 36.5q154 0 224 -100q49 -70 49 -173q0 -45 -9 -96l-110 -615q-3 -20 -23 -20h-123q-8 0 -12.5 5.5t-3.5 14.5l102 576q8 44 8 80q0 69 -28 113q-42 67 -146 67q-95 0 -169.5 -69.5 t-94.5 -178.5l-104 -588q-3 -20 -21 -20h-125q-8 0 -12.5 5.5t-3.5 14.5z" />
<glyph unicode="o" horiz-adv-x="1011" d="M94 315q0 99 28 231t66 208q124 250 416 250q158 0 246 -89.5t88 -246.5q0 -99 -29 -231t-67 -210q-121 -250 -414 -250q-159 0 -246.5 89.5t-87.5 248.5zM260 342q0 -215 191 -215q161 0 243 160q28 58 52 170.5t24 183.5q0 215 -190 215q-161 0 -242 -162 q-29 -56 -53.5 -169t-24.5 -183z" />
<glyph unicode="p" horiz-adv-x="1056" d="M25 -348l229 1309q3 20 22 20h125q20 0 17 -20l-17 -95h2q104 138 293 138q136 0 211.5 -86.5t75.5 -235.5q0 -108 -29.5 -250.5t-70.5 -226.5q-113 -228 -363 -228q-98 0 -160.5 40t-89.5 104h-2l-82 -469q-4 -21 -20 -21h-125q-19 0 -16 21zM315 328q0 -95 47 -148 t140 -53q159 0 235 156q32 63 55 176t23 192q0 205 -184 205q-162 0 -242 -162q-25 -50 -49.5 -171.5t-24.5 -194.5z" />
<glyph unicode="q" horiz-adv-x="1056" d="M94 299q0 108 30 250.5t71 226.5q113 228 362 228q98 0 160.5 -39.5t87.5 -102.5h2l18 99q3 20 21 20h125q21 0 18 -20l-233 -1309q-4 -21 -23 -21h-123q-20 0 -16 21l82 463h-2q-104 -138 -293 -138q-137 0 -212 85.5t-75 236.5zM260 332q0 -100 43.5 -152.5 t140.5 -52.5q164 0 242 160q25 51 49.5 172.5t24.5 193.5q0 96 -45.5 149.5t-139.5 53.5q-156 0 -237 -158q-31 -62 -54.5 -175.5t-23.5 -190.5z" />
<glyph unicode="r" horiz-adv-x="806" d="M88 20l166 941q3 20 22 20h125q20 0 17 -20l-21 -105h2q43 68 113.5 108t157.5 40q118 0 182 -74q11 -15 0 -29l-84 -90q-12 -14 -29 -4q-63 49 -137 49q-102 0 -166.5 -81t-89.5 -216l-96 -539q-3 -20 -21 -20h-123q-21 0 -18 20z" />
<glyph unicode="s" horiz-adv-x="962" d="M43 123q-11 14 4 29l88 84q15 12 27 0q111 -111 272 -111q113 0 181.5 54.5t68.5 131.5q0 52 -35.5 79t-118.5 34l-98 10q-126 13 -188 73t-62 159q0 156 112.5 247t289.5 91q91 0 177.5 -31.5t139.5 -77.5q14 -11 2 -27l-78 -80q-13 -16 -28 -4q-113 76 -238 76 q-96 0 -155.5 -48.5t-59.5 -119.5q0 -49 35 -75t123 -35l96 -11q126 -12 187 -70t61 -155q0 -168 -116 -268.5t-316 -100.5q-124 0 -220 43t-151 103z" />
<glyph unicode="t" horiz-adv-x="618" d="M150 870l16 91q3 20 22 20h84q12 0 15 12l49 277q3 20 22 20h123q20 0 17 -20l-49 -277q-3 -12 8 -12h153q20 0 17 -20l-17 -91q-3 -20 -22 -20h-154q-9 0 -12 -12l-107 -564q-5 -30 -5 -52q0 -36 13 -54q21 -28 91 -27h41q19 0 16 -20l-18 -111q-3 -20 -23 -20h-74 q-136 0 -183 65q-30 42 -30 117q0 42 9 94l106 572q3 12 -10 12h-82q-19 0 -16 20z" />
<glyph unicode="u" horiz-adv-x="1060" d="M133 348l111 613q3 20 20 20h123q19 0 16 -20l-102 -574q-8 -46 -8 -83q0 -175 172 -175q94 0 167 67.5t93 178.5l102 586q3 20 23 20h125q8 0 12.5 -5.5t3.5 -14.5l-166 -941q-3 -20 -22 -20h-125q-8 0 -12.5 5.5t-3.5 14.5l16 93h-2q-112 -136 -283 -136 q-153 1 -222 101q-48 69 -48 171q0 46 10 99z" />
<glyph unicode="v" horiz-adv-x="942" d="M143 961q0 20 19 20h125q19 0 22 -20l119 -719h4l373 719q7 20 26 20h134q11 0 14.5 -5.5t-0.5 -14.5l-506 -941q-10 -20 -24 -20h-113q-18 0 -21 20z" />
<glyph unicode="w" horiz-adv-x="1464" d="M154 961q-3 20 16 20h119q21 0 24 -20l82 -725h2l344 725q9 20 27 20h102q20 0 23 -20l90 -725h2l336 725q7 20 27 20h133q20 0 10 -20l-461 -941q-9 -20 -26 -20h-109q-18 0 -21 20l-83 721h-5l-348 -721q-10 -20 -26 -20h-109q-17 0 -20 20z" />
<glyph unicode="x" horiz-adv-x="942" d="M-17 6q-3 6 3 14l409 494l-213 447q-3 8 2 14t15 6h133q19 0 26 -16l146 -314h2l258 314q14 16 33 16h141q9 0 11.5 -6.5t-3.5 -13.5l-371 -449l232 -492q3 -8 -1 -14t-15 -6h-129q-19 0 -27 18l-166 357h-2l-295 -357q-13 -18 -31 -18h-145q-10 0 -13 6z" />
<glyph unicode="y" horiz-adv-x="942" d="M10 -348l19 108q3 21 24 21h35q59 0 100 33.5t88 122.5l48 92l-181 932q-3 20 17 20h129q11 0 16 -4t6 -16l121 -717h4l373 717q7 20 27 20h131q11 0 14.5 -5.5t-0.5 -14.5l-559 -1041q-91 -167 -165 -228t-179 -61h-51q-9 0 -14.5 6t-2.5 15z" />
<glyph unicode="z" horiz-adv-x="935" d="M35 20l16 101q2 9 12 22l635 691v2h-475q-19 0 -16 20l18 105q3 20 23 20h657q20 0 17 -20l-19 -105q-3 -16 -12 -25l-631 -679v-5h498q19 0 16 -20l-18 -107q-3 -20 -23 -20h-682q-19 0 -16 20z" />
<glyph unicode="{" horiz-adv-x="641" d="M145 623l19 108q4 21 22 21q62 0 97.5 38t52.5 128l67 372q40 226 246 226h86q9 0 14 -6t3 -15l-15 -90q-3 -21 -22 -21h-51q-96 0 -113 -104l-64 -360q-20 -115 -55 -167t-106 -77v-2q60 -25 77 -80t-2 -162l-65 -369q-9 -56 8.5 -80t63.5 -24h53q19 0 16 -20l-16 -91 q-3 -20 -21 -20h-88q-206 0 -166 227l66 381q15 86 -7.5 124.5t-82.5 41.5q-20 0 -17 21z" />
<glyph unicode="|" horiz-adv-x="573" d="M246 -152v1647q0 21 20 21h96q9 0 15 -6t6 -15v-1647q0 -20 -21 -20h-96q-20 0 -20 20z" />
<glyph unicode="}" horiz-adv-x="641" d="M-29 -152l15 91q3 20 22 20h53q94 0 111 104l66 371q21 115 56.5 166.5t104.5 75.5v4q-59 25 -76 79t1 161l63 360q10 56 -7.5 80t-64.5 24h-53q-20 0 -16 21l16 90q4 21 23 21h86q205 0 168 -228l-66 -370q-15 -86 7.5 -125t82.5 -41q20 -3 17 -21l-17 -108 q-2 -9 -8.5 -15t-15.5 -6q-62 -2 -97.5 -39.5t-52.5 -126.5l-70 -383q-40 -225 -243 -225h-88q-20 0 -17 20z" />
<glyph unicode="~" d="M92 520q40 85 109 132.5t153 47.5q96 0 207 -75q83 -58 146 -58q51 0 85.5 25.5t69.5 83.5q10 17 29 4l67 -43q18 -9 7 -29q-38 -84 -107 -131t-153 -47q-98 0 -207 76q-86 57 -146 57q-51 0 -86.5 -25.5t-70.5 -82.5q-10 -16 -27 -6l-70 43q-16 11 -6 28z" />
<glyph unicode="&#xa1;" horiz-adv-x="559" d="M51 -391l203 977q3 20 22 20h82q18 0 15 -20l-144 -977q-3 -21 -20 -21h-141q-20 0 -17 21zM254 791l29 170q3 20 22 20h146q19 0 16 -20l-29 -170q-4 -21 -22 -21h-144q-9 0 -14 6t-4 15z" />
<glyph unicode="&#xa2;" d="M166 311q0 105 22 222t66 212q116 238 377 256l28 166q1 9 8.5 15t16.5 6h45q19 0 16 -21l-30 -166q186 -18 256 -174q9 -18 -8 -26l-89 -68q-21 -10 -28 8q-27 54 -63.5 81.5t-92.5 31.5l-127 -723q111 12 199 113q13 17 26 4l74 -76q14 -14 -2 -29q-123 -152 -323 -163 l-29 -164q-4 -21 -25 -21h-45q-20 0 -16 21l29 166q-138 14 -211.5 98.5t-73.5 230.5zM332 336q0 -181 145 -203l127 717q-131 -26 -194 -154q-37 -78 -57.5 -182.5t-20.5 -177.5z" />
<glyph unicode="&#xa3;" d="M127 20l16 109q3 11 15 23q46 41 70 81.5t40 122.5l39 222q3 12 -10 12h-94q-18 0 -15 20l15 86q2 9 8.5 15t15.5 6h92q12 0 15 12l55 315q33 185 131.5 278t249.5 93q120 0 187 -68t73 -184q0 -18 -20 -24l-113 -29q-18 -3 -18 16q-3 63 -36.5 100.5t-92.5 37.5 q-75 0 -126.5 -51t-66.5 -142l-59 -342q-3 -12 8 -12h254q20 0 16 -21l-14 -86q-3 -20 -25 -20h-252q-11 0 -14 -12l-35 -197q-27 -156 -98 -227l-2 -4h510q8 0 12.5 -6t3.5 -15l-18 -109q-3 -20 -21 -20h-680q-19 0 -16 20z" />
<glyph unicode="&#xa4;" d="M63 283q-10 14 7 28l143 127q-29 69 -29 146q0 180 111 313l-96 123q-11 14 4 29l78 69q17 14 28 0l94 -123q108 68 236 68q119 0 209 -70l143 129q16 13 29 0l61 -78q13 -13 -6 -26l-145 -131q31 -74 31 -146q0 -179 -111 -315l98 -121q12 -16 -4 -29l-78 -67 q-16 -13 -26 0l-99 121q-108 -68 -235 -68q-125 0 -213 72l-141 -127q-16 -13 -29 0zM319 602q0 -92 55 -150.5t146 -58.5q128 0 216.5 99t88.5 231q0 92 -54.5 150.5t-145.5 58.5q-128 0 -217 -99t-89 -231z" />
<glyph unicode="&#xa5;" d="M156 326l12 82q3 20 25 20h249q12 0 15 12l18 105q3 12 -10 12h-250q-19 0 -16 21l14 84q3 20 23 20h217v2l-187 686q-2 9 3 16t14 7h129q17 0 24 -21l150 -624h6l371 624q12 21 32 21h129q9 0 13 -7t-2 -16l-428 -686v-2h217q19 0 16 -20l-14 -84q-4 -21 -23 -21h-252 q-11 0 -14 -12l-19 -105q-3 -12 11 -12h250q19 0 16 -20l-12 -82q-1 -9 -8.5 -15t-16.5 -6h-254q-9 0 -12 -12l-47 -273q-3 -20 -23 -20h-123q-19 0 -16 20l49 271q3 14 -10 14h-250q-20 0 -16 21z" />
<glyph unicode="&#xa6;" horiz-adv-x="573" d="M246 -152v689q0 20 20 20h96q21 0 21 -20v-689q0 -20 -21 -20h-96q-20 0 -20 20zM246 815v680q0 21 20 21h96q9 0 15 -6t6 -15v-680q0 -20 -21 -20h-96q-20 0 -20 20z" />
<glyph unicode="&#xa7;" horiz-adv-x="1079" d="M111 -102q0 19 16 22l115 23q16 3 16 -15q-6 -90 28.5 -137t125.5 -47q92 0 153.5 61t61.5 158q0 73 -47.5 115t-167.5 69q-228 53 -228 279q0 142 71 258t196 162v2q-56 32 -85.5 83t-29.5 109q0 161 108 268t275 107q145 0 214.5 -78.5t55.5 -197.5q-3 -20 -20 -23 l-113 -22q-16 -3 -16 14q8 77 -28 124.5t-116 47.5q-92 0 -148 -61t-56 -154q0 -66 48 -108t158 -70q226 -58 226 -279q0 -139 -69 -255.5t-193 -164.5v-2q60 -27 90 -79t30 -117q0 -167 -111 -274t-280 -107q-153 0 -223 78.5t-57 210.5zM338 455q0 -82 46.5 -127 t127.5 -45q115 0 186.5 85.5t71.5 209.5q0 82 -47 128t-127 46q-115 0 -186.5 -85.5t-71.5 -211.5z" />
<glyph unicode="&#xa8;" horiz-adv-x="833" d="M287 1231l26 141q3 21 23 21h113q19 0 16 -21l-25 -141q-4 -21 -22 -21h-115q-19 0 -16 21zM676 1231l26 141q4 21 23 21h113q20 0 16 -21l-25 -141q-3 -21 -22 -21h-115q-20 0 -16 21z" />
<glyph unicode="&#xa9;" horiz-adv-x="1697" d="M172 696q0 200 94 365t258.5 259.5t364.5 94.5q201 0 366 -94.5t259 -259.5t94 -365t-94 -365t-259 -259.5t-366 -94.5q-200 0 -364.5 94.5t-258.5 259.5t-94 365zM293 696q0 -127 46 -238.5t125 -191t189.5 -125t235.5 -45.5q256 0 426 171t170 429t-170 429t-426 171 q-125 0 -235.5 -45.5t-189.5 -125t-125 -191t-46 -238.5zM575 696q0 110 23 189q33 105 113.5 160t195.5 55q87 0 156 -35.5t111 -95.5q12 -15 -5 -29l-59 -53q-16 -13 -29 4q-35 45 -74.5 67.5t-97.5 22.5q-144 0 -188 -131q-14 -46 -14 -154q0 -107 14 -153 q44 -131 188 -131q58 0 97.5 22.5t74.5 67.5q13 17 29 4l59 -53q17 -14 5 -29q-42 -60 -111 -95.5t-156 -35.5q-115 0 -195.5 55t-113.5 160q-23 79 -23 188z" />
<glyph unicode="&#xaa;" horiz-adv-x="675" d="M170 942q0 105 76 160t200 55h123q10 0 13 12l6 33q11 47 -16 69.5t-103 22.5q-73 0 -145 -39q-7 -5 -15.5 -2.5t-11.5 9.5l-25 65q-7 17 11 29q85 53 221 53q134 0 182 -49.5t29 -157.5l-68 -379q-3 -20 -22 -20h-84q-8 0 -13 5.5t-4 14.5l6 35h-4q-59 -65 -184 -65 q-77 0 -124.5 39t-47.5 110zM297 965q0 -31 26 -48.5t72 -17.5q65 0 108 27t50 73l8 50q3 12 -10 12h-111q-65 0 -104 -25.5t-39 -70.5z" />
<glyph unicode="&#xab;" horiz-adv-x="1036" d="M100 526q-14 14 4 29l435 387q6 6 12.5 3.5t5.5 -11.5l-22 -148q-5 -21 -25 -41l-236 -202q-10 -8 -4 -17l162 -209q15 -18 10 -38l-20 -132q-1 -9 -9 -11.5t-14 3.5zM522 526q-12 16 4 29l437 387q6 6 12.5 3.5t5.5 -11.5l-25 -148q-6 -22 -22 -41l-238 -202 q-9 -9 -4 -17l162 -209q15 -18 10 -38l-20 -132q-1 -9 -9 -11.5t-14 3.5z" />
<glyph unicode="&#xac;" d="M102 512v106q0 9 6 15t15 6h813q20 0 20 -21v-380q0 -21 -20 -21h-111q-20 0 -20 21v241q0 13 -12 13h-670q-21 0 -21 20z" />
<glyph unicode="&#xad;" horiz-adv-x="747" d="M102 485l21 117q3 19 22 19h521q20 0 16 -21l-20 -117q-3 -18 -23 -18h-520q-20 0 -17 20z" />
<glyph unicode="&#xae;" horiz-adv-x="929" d="M174 1010q0 166 111.5 278.5t277.5 112.5t278.5 -112.5t112.5 -278.5q0 -167 -112.5 -280.5t-278.5 -113.5t-277.5 113.5t-111.5 280.5zM240 1010q0 -141 92.5 -234.5t230.5 -93.5t231 93.5t93 234.5q0 139 -93 232t-231 93t-230.5 -93t-92.5 -232zM412 809v405 q0 15 14 15h166q69 0 107 -34t38 -95q0 -44 -22.5 -75.5t-63.5 -43.5l88 -172q7 -14 -8 -14h-51q-12 0 -18 14l-84 162h-84q-9 0 -9 -10v-152q0 -14 -14 -14h-45q-14 0 -14 14zM485 1047q0 -3 3 -6t6 -3h96q76 0 76 62q0 63 -76 63h-96q-9 0 -9 -8v-108z" />
<glyph unicode="&#xaf;" horiz-adv-x="833" d="M293 1260l14 83q3 21 23 21h499q9 0 14 -6t3 -15l-15 -83q-3 -21 -22 -21h-500q-19 0 -16 21z" />
<glyph unicode="&#xb0;" horiz-adv-x="935" d="M276 1112q0 128 84 213.5t211 85.5t213 -85.5t86 -213.5q0 -126 -85.5 -210.5t-213.5 -84.5q-127 0 -211 84.5t-84 210.5zM383 1112q0 -82 53.5 -137t134.5 -55q83 0 137 55t54 137q0 85 -53.5 140t-137.5 55q-82 0 -135 -55t-53 -140z" />
<glyph unicode="&#xb1;" d="M102 20v109q0 9 6 15t15 6h813q20 0 20 -21v-109q0 -20 -20 -20h-813q-21 0 -21 20zM102 643v109q0 20 21 20h319q13 0 13 12v322q0 20 20 20h109q20 0 20 -20v-322q0 -12 12 -12h320q20 0 20 -20v-109q0 -20 -20 -20h-320q-12 0 -12 -13v-321q0 -21 -20 -21h-109 q-20 0 -20 21v321q0 13 -13 13h-319q-21 0 -21 20z" />
<glyph unicode="&#xb2;" horiz-adv-x="665" d="M162 901l14 78q3 15 17 29l356 350q88 85 88 160q0 42 -25 66t-71 24q-95 0 -142 -107q-8 -17 -22 -14l-84 18q-17 3 -10 23q27 84 100 141t180 57q96 0 150.5 -52t54.5 -136q0 -70 -31 -129t-94 -123l-297 -285v-2h313q20 0 17 -20l-12 -78q-1 -9 -8 -14.5t-15 -5.5 h-463q-19 0 -16 20z" />
<glyph unicode="&#xb3;" horiz-adv-x="665" d="M184 1042q-2 9 3 17.5t12 9.5l86 21q16 4 22 -15q8 -40 37.5 -65t79.5 -25q66 0 112 45.5t46 112.5q0 48 -30.5 77t-86.5 29h-35q-20 0 -16 21l12 78q3 20 25 20h26q65 0 107.5 41.5t42.5 108.5q0 41 -26.5 65.5t-72.5 24.5q-86 0 -133 -78q-13 -19 -26 -17l-76 21 q-16 3 -10 25q30 72 100.5 119.5t169.5 47.5t154 -50t55 -134q0 -148 -129 -223v-2q33 -17 56.5 -57t23.5 -95q0 -134 -84.5 -216.5t-216.5 -82.5q-98 0 -157 46.5t-71 129.5z" />
<glyph unicode="&#xb4;" horiz-adv-x="833" d="M382.5 1146.5q-3.5 5.5 2.5 14.5l188 252q15 21 39 21h127q9 0 11 -8t-5 -15l-223 -250q-18 -20 -41 -20h-86q-9 0 -12.5 5.5z" />
<glyph unicode="&#xb5;" horiz-adv-x="1075" d="M25 -348l231 1309q3 20 23 20h120q20 0 17 -20l-103 -584q-21 -119 19.5 -183.5t144.5 -64.5q96 0 169 68t93 178l103 586q3 20 22 20h123q9 0 14.5 -5.5t4.5 -14.5l-168 -941q-3 -20 -23 -20h-123q-8 0 -12.5 5.5t-3.5 14.5l18 99h-2q-43 -65 -111 -103.5t-151 -38.5 q-122 0 -168 80h-4l-70 -405q-4 -21 -22 -21h-123q-9 0 -14 6t-4 15z" />
<glyph unicode="&#xb6;" horiz-adv-x="1179" d="M236 936q22 196 163.5 326.5t354.5 130.5h403q9 0 14 -6t3 -15l-304 -1720q-4 -21 -22 -21h-105q-19 0 -16 21l281 1587q3 12 -11 12h-168q-9 0 -12 -12l-280 -1587q-3 -21 -23 -21h-102q-20 0 -17 21l156 887q-166 10 -251 120.5t-64 276.5z" />
<glyph unicode="&#xb7;" horiz-adv-x="462" d="M145 459l29 168q3 20 23 20h143q21 0 18 -20l-28 -168q-4 -21 -23 -21h-143q-9 0 -14.5 6t-4.5 15z" />
<glyph unicode="&#xb8;" horiz-adv-x="833" d="M170 -289l164 289q11 20 28 20h89q9 0 12.5 -5.5t-0.5 -14.5l-144 -289q-10 -20 -34 -20h-105q-20 0 -10 20z" />
<glyph unicode="&#xb9;" horiz-adv-x="665" d="M336 1477l18 98q3 23 21 33l143 90q20 14 35 14h88q8 0 12.5 -5.5t3.5 -14.5l-139 -791q-3 -20 -22 -20h-90q-20 0 -17 20l115 651h-4l-144 -88q-9 -6 -15.5 -1t-4.5 14z" />
<glyph unicode="&#xba;" horiz-adv-x="690" d="M184 1006q0 133 52 237q79 166 278 166q105 0 165 -55.5t60 -163.5q0 -130 -51 -238q-82 -166 -280 -166q-104 0 -164 56t-60 164zM319 1032q0 -125 107 -125q90 0 139 90q16 33 26.5 82t10.5 84q0 125 -106 125q-89 0 -138 -90q-18 -33 -28.5 -82t-10.5 -84z" />
<glyph unicode="&#xbb;" horiz-adv-x="1036" d="M90 147l25 148q3 22 22 39l236 205q10 7 4 16l-160 207q-15 17 -12 41l22 131q1 9 9 11.5t12 -3.5l301 -387q10 -17 -4 -29l-436 -387q-6 -6 -13 -3.5t-6 11.5zM514 147l23 148q6 23 24 39l236 205q9 9 4 16l-162 207q-16 18 -10 41l20 131q1 9 9 11.5t14 -3.5l299 -387 q10 -17 -4 -29l-435 -387q-6 -6 -12.5 -3.5t-5.5 11.5z" />
<glyph unicode="&#xbc;" horiz-adv-x="1642" d="M281.5 -16.5q-2.5 6.5 3.5 14.5l1022 1397q14 20 32 20h91q9 0 11 -6.5t-3 -13.5l-1020 -1397q-15 -21 -33 -21h-92q-9 0 -11.5 6.5zM311 1157l19 98q3 23 20 33l144 90q21 15 34 15h88q8 0 13 -6t4 -15l-139 -790q-4 -21 -23 -21h-90q-19 0 -16 21l114 651h-4l-143 -88 q-9 -6 -16 -1.5t-5 13.5zM883 162l12 76q3 16 14 32l348 541q13 20 33 20h92q8 0 11 -5.5t-2 -14.5l-347 -551v-2h193q11 0 14 12l33 187q1 9 8 14.5t15 5.5h86q19 0 16 -20l-33 -187q-3 -12 10 -12h54q19 0 16 -20l-14 -78q-3 -19 -21 -19h-57q-9 0 -12 -12l-19 -109 q-3 -20 -24 -20h-86q-18 0 -15 20l19 109q3 12 -10 12h-318q-19 0 -16 21z" />
<glyph unicode="&#xbd;" horiz-adv-x="1712" d="M281.5 -16.5q-2.5 6.5 3.5 14.5l1022 1397q14 20 32 20h91q9 0 11 -6.5t-3 -13.5l-1020 -1397q-15 -21 -33 -21h-92q-9 0 -11.5 6.5zM311 1157l19 98q3 23 20 33l144 90q21 15 34 15h88q8 0 13 -6t4 -15l-139 -790q-4 -21 -23 -21h-90q-19 0 -16 21l114 651h-4l-143 -88 q-9 -6 -16 -1.5t-5 13.5zM973 20l14 78q3 15 17 29l356 350q88 85 88 160q0 42 -25 66t-71 24q-95 0 -142 -106q-9 -18 -22 -15l-84 19q-16 3 -10 22q27 84 100 141.5t180 57.5q96 0 150.5 -52.5t54.5 -136.5q0 -70 -31 -128t-94 -123l-297 -285v-2h313q20 0 17 -21l-12 -78 q-1 -9 -8 -14.5t-15 -5.5h-463q-19 0 -16 20z" />
<glyph unicode="&#xbe;" horiz-adv-x="1763" d="M231 723q-2 9 3 17.5t12 9.5l86 20q16 5 22 -14q8 -40 37.5 -65t79.5 -25q66 0 112 45t46 112q0 48 -30.5 77.5t-86.5 29.5h-35q-19 0 -16 20l12 78q3 21 25 21h26q65 0 107.5 41t42.5 108q0 41 -26.5 65.5t-72.5 24.5q-86 0 -133 -78q-12 -18 -26 -16l-76 20 q-16 3 -10 25q30 73 100.5 120.5t169.5 47.5t154 -50t55 -134q0 -149 -129 -224v-2q33 -17 56.5 -57t23.5 -94q0 -134 -84.5 -216.5t-216.5 -82.5q-98 0 -157 46.5t-71 129.5zM402.5 -16.5q-2.5 6.5 3.5 14.5l1021 1397q14 20 33 20h90q9 0 11.5 -6.5t-2.5 -13.5 l-1020 -1397q-15 -21 -33 -21h-92q-9 0 -11.5 6.5zM1004 162l12 76q3 16 14 32l348 541q13 20 33 20h92q8 0 10.5 -5.5t-2.5 -14.5l-346 -551v-2h193q11 0 14 12l33 187q1 9 7.5 14.5t14.5 5.5h86q20 0 17 -20l-33 -187q-3 -12 10 -12h54q19 0 16 -20l-14 -78 q-3 -19 -21 -19h-57q-9 0 -12 -12l-19 -109q-3 -20 -24 -20h-87q-17 0 -14 20l19 109q3 12 -11 12h-317q-20 0 -16 21z" />
<glyph unicode="&#xbf;" horiz-adv-x="894" d="M8 -152q0 84 38 163.5t122 170.5l158 185q39 42 54.5 71.5t25.5 83.5l16 68q3 20 22 20h121q20 0 17 -20l-17 -84q-10 -61 -30.5 -103.5t-59.5 -85.5l-160 -184q-78 -85 -109.5 -141.5t-31.5 -118.5q0 -72 43.5 -114t118.5 -42q83 0 147 53.5t99 145.5q6 19 24 16 l117 -20q17 -3 10 -23q-46 -150 -158.5 -236.5t-265.5 -86.5q-138 0 -219.5 78t-81.5 204zM442 791l27 170q3 20 23 20h145q19 0 16 -20l-26 -170q-3 -21 -23 -21h-145q-9 0 -14 6t-3 15z" />
<glyph unicode="&#xc0;" horiz-adv-x="1200" d="M-23 20l705 1352q10 21 29 21h123q18 0 22 -21l219 -1352q3 -20 -16 -20h-127q-20 0 -23 20l-49 312h-543l-159 -312q-9 -20 -27 -20h-143q-21 0 -11 20zM397 487h441l-101 648h-6zM534 1811.5q3 7.5 11 7.5h125q24 0 39 -21l131 -215q4 -9 0 -14.5t-13 -5.5h-92 q-19 0 -33 16l-167 217q-4 8 -1 15.5z" />
<glyph unicode="&#xc1;" horiz-adv-x="1200" d="M-23 20l705 1352q10 21 29 21h123q18 0 22 -21l219 -1352q3 -20 -16 -20h-127q-20 0 -23 20l-49 312h-543l-159 -312q-9 -20 -27 -20h-143q-21 0 -11 20zM397 487h441l-101 648h-6zM746.5 1569.5q-2.5 6.5 3.5 13.5l198 215q21 21 41 21h135q9 0 12 -6.5t-6 -14.5 l-241 -219q-18 -16 -39 -16h-92q-9 0 -11.5 6.5z" />
<glyph unicode="&#xc2;" horiz-adv-x="1200" d="M-23 20l705 1352q10 21 29 21h123q18 0 22 -21l219 -1352q3 -20 -16 -20h-127q-20 0 -23 20l-49 312h-543l-159 -312q-9 -20 -27 -20h-143q-21 0 -11 20zM397 487h441l-101 648h-6zM534 1551q-2 7 5 14l229 254q15 18 37 18h80q18 0 28 -18l142 -254q4 -7 0.5 -14 t-11.5 -7h-77q-19 0 -35 21l-98 153h-3l-157 -153q-18 -21 -41 -21h-88q-9 0 -11 7z" />
<glyph unicode="&#xc3;" horiz-adv-x="1200" d="M-23 20l705 1352q10 21 29 21h123q18 0 22 -21l219 -1352q3 -20 -16 -20h-127q-20 0 -23 20l-49 312h-543l-159 -312q-9 -20 -27 -20h-143q-21 0 -11 20zM397 487h441l-101 648h-6zM541 1597l16 93q5 20 21 36q66 60 143 60q58 0 119 -41q53 -37 96 -37q66 0 135 66 q6 6 12 2.5t4 -9.5l-16 -94q-2 -17 -20 -35q-64 -61 -144 -61q-58 0 -119 41q-50 37 -96 37q-64 0 -135 -64q-6 -6 -12 -4t-4 10z" />
<glyph unicode="&#xc4;" horiz-adv-x="1200" d="M-23 20l705 1352q10 21 29 21h123q18 0 22 -21l219 -1352q3 -20 -16 -20h-127q-20 0 -23 20l-49 312h-543l-159 -312q-9 -20 -27 -20h-143q-21 0 -11 20zM397 487h441l-101 648h-6zM539 1614l26 143q3 21 23 21h112q20 0 17 -21l-25 -143q-4 -21 -22 -21h-115 q-19 0 -16 21zM928 1614l26 143q4 21 23 21h113q20 0 16 -21l-25 -143q-3 -21 -22 -21h-115q-20 0 -16 21z" />
<glyph unicode="&#xc5;" horiz-adv-x="1200" d="M-23 20l705 1352q10 21 29 21h123q18 0 22 -21l219 -1352q3 -20 -16 -20h-127q-20 0 -23 20l-49 312h-543l-159 -312q-9 -20 -27 -20h-143q-21 0 -11 20zM397 487h441l-101 648h-6zM629 1649q0 94 62.5 160.5t158.5 66.5q69 0 112.5 -44t43.5 -112q0 -93 -63 -159 t-159 -66q-69 0 -112 43t-43 111zM713 1663q0 -39 23.5 -63.5t62.5 -24.5q52 0 87.5 37.5t35.5 95.5q0 39 -23.5 63.5t-62.5 24.5q-52 0 -87.5 -37.5t-35.5 -95.5z" />
<glyph unicode="&#xc6;" horiz-adv-x="1839" d="M-20 20l962 1352q14 21 31 21h913q9 0 14.5 -6t4.5 -15l-21 -119q-3 -20 -24 -20h-635q-12 0 -15 -12l-75 -424q-3 -13 10 -13h541q19 0 16 -20l-21 -119q-3 -20 -24 -20h-541q-11 0 -14 -13l-80 -440q-3 -12 10 -12h637q9 0 14 -6t3 -15l-21 -119q-3 -20 -23 -20h-798 q-9 0 -14.5 5.5t-4.5 14.5l54 299q3 13 -11 13h-475l-221 -312q-14 -20 -31 -20h-153q-21 0 -8 20zM506 487h389q11 0 14 13l131 731h-4z" />
<glyph unicode="&#xc7;" horiz-adv-x="1114" d="M123 385q0 115 47 363t98 352q79 163 199 239t291 76q141 0 239.5 -75.5t135.5 -211.5q6 -16 -13 -22l-112 -53q-22 -7 -25 10q-62 192 -246 192q-207 0 -313 -213q-44 -93 -85.5 -316.5t-41.5 -324.5q0 -125 64.5 -194.5t187.5 -69.5q181 0 305 191q10 17 27 10l106 -57 q15 -6 4 -25q-82 -135 -186.5 -201.5t-239.5 -74.5l-133 -269q-10 -20 -35 -20h-104q-20 0 -10 20l153 273q-147 24 -230 127t-83 274z" />
<glyph unicode="&#xc8;" horiz-adv-x="1105" d="M92 20l240 1352q4 21 22 21h799q9 0 14 -6t4 -15l-20 -119q-3 -20 -25 -20h-637q-11 0 -14 -12l-74 -424q-3 -13 11 -13h540q20 0 17 -20l-21 -119q-3 -20 -24 -20h-541q-11 0 -14 -13l-80 -440q-3 -12 10 -12h637q20 0 16 -21l-20 -119q-3 -20 -23 -20h-798 q-9 0 -14.5 5.5t-4.5 14.5zM531.5 1811.5q3.5 7.5 11.5 7.5h125q24 0 39 -21l131 -215q4 -9 0 -14.5t-13 -5.5h-92q-19 0 -33 16l-168 217q-4 8 -0.5 15.5z" />
<glyph unicode="&#xc9;" horiz-adv-x="1105" d="M92 20l240 1352q4 21 22 21h799q9 0 14 -6t4 -15l-20 -119q-3 -20 -25 -20h-637q-11 0 -14 -12l-74 -424q-3 -13 11 -13h540q20 0 17 -20l-21 -119q-3 -20 -24 -20h-541q-11 0 -14 -13l-80 -440q-3 -12 10 -12h637q20 0 16 -21l-20 -119q-3 -20 -23 -20h-798 q-9 0 -14.5 5.5t-4.5 14.5zM674.5 1569.5q-2.5 6.5 3.5 13.5l199 215q21 21 41 21h135q9 0 12 -6.5t-6 -14.5l-242 -219q-18 -16 -39 -16h-92q-9 0 -11.5 6.5z" />
<glyph unicode="&#xca;" horiz-adv-x="1105" d="M92 20l240 1352q4 21 22 21h799q9 0 14 -6t4 -15l-20 -119q-3 -20 -25 -20h-637q-11 0 -14 -12l-74 -424q-3 -13 11 -13h540q20 0 17 -20l-21 -119q-3 -20 -24 -20h-541q-11 0 -14 -13l-80 -440q-3 -12 10 -12h637q20 0 16 -21l-20 -119q-3 -20 -23 -20h-798 q-9 0 -14.5 5.5t-4.5 14.5zM523.5 1551q-2.5 7 4.5 14l230 254q15 18 37 18h79q19 0 29 -18l141 -254q4 -7 1 -14t-11 -7h-78q-18 0 -34 21l-99 153h-2l-157 -153q-18 -21 -41 -21h-88q-9 0 -11.5 7z" />
<glyph unicode="&#xcb;" horiz-adv-x="1105" d="M92 20l240 1352q4 21 22 21h799q9 0 14 -6t4 -15l-20 -119q-3 -20 -25 -20h-637q-11 0 -14 -12l-74 -424q-3 -13 11 -13h540q20 0 17 -20l-21 -119q-3 -20 -24 -20h-541q-11 0 -14 -13l-80 -440q-3 -12 10 -12h637q20 0 16 -21l-20 -119q-3 -20 -23 -20h-798 q-9 0 -14.5 5.5t-4.5 14.5zM530 1614l27 143q3 21 23 21h112q20 0 17 -21l-25 -143q-4 -21 -22 -21h-115q-9 0 -14 6t-3 15zM920 1614l26 143q4 21 23 21h112q9 0 14 -6t3 -15l-25 -143q-3 -21 -22 -21h-115q-20 0 -16 21z" />
<glyph unicode="&#xcc;" horiz-adv-x="501" d="M92 20l240 1352q4 21 22 21h131q9 0 14 -6t3 -15l-240 -1352q-3 -20 -20 -20h-131q-9 0 -14.5 5.5t-4.5 14.5zM194 1811.5q3 7.5 11 7.5h125q24 0 39 -21l131 -215q4 -9 0 -14.5t-13 -5.5h-92q-19 0 -33 16l-167 217q-4 8 -1 15.5z" />
<glyph unicode="&#xcd;" horiz-adv-x="501" d="M92 20l240 1352q4 21 22 21h131q9 0 14 -6t3 -15l-240 -1352q-3 -20 -20 -20h-131q-9 0 -14.5 5.5t-4.5 14.5zM406.5 1569.5q-2.5 6.5 3.5 13.5l198 215q21 21 41 21h135q10 0 12.5 -6.5t-5.5 -14.5l-242 -219q-18 -16 -39 -16h-92q-9 0 -11.5 6.5z" />
<glyph unicode="&#xce;" horiz-adv-x="501" d="M92 20l240 1352q4 21 22 21h131q9 0 14 -6t3 -15l-240 -1352q-3 -20 -20 -20h-131q-9 0 -14.5 5.5t-4.5 14.5zM192 1551q-2 7 5 14l229 254q15 18 37 18h80q18 0 28 -18l142 -254q4 -7 0.5 -14t-11.5 -7h-77q-19 0 -35 21l-98 153h-3l-157 -153q-18 -21 -41 -21h-88 q-9 0 -11 7z" />
<glyph unicode="&#xcf;" horiz-adv-x="501" d="M92 20l240 1352q4 21 22 21h131q9 0 14 -6t3 -15l-240 -1352q-3 -20 -20 -20h-131q-9 0 -14.5 5.5t-4.5 14.5zM193 1614l26 143q3 21 23 21h112q20 0 17 -21l-25 -143q-4 -21 -22 -21h-115q-19 0 -16 21zM582 1614l26 143q4 21 23 21h112q9 0 14 -6t3 -15l-25 -143 q-3 -21 -22 -21h-115q-20 0 -16 21z" />
<glyph unicode="&#xd0;" horiz-adv-x="1232" d="M92 20l109 605q3 12 -11 12h-65q-19 0 -16 20l16 97q3 20 25 20h63q12 0 14 12l105 586q4 21 22 21h449q189 0 284 -96t95 -279q0 -143 -45 -386.5t-103 -361.5q-71 -148 -184.5 -209t-290.5 -61h-448q-9 0 -14.5 5.5t-4.5 14.5zM289 172q-3 -12 10 -12h250 q125 0 208 46.5t134 147.5q42 87 83.5 303t41.5 326q0 131 -69 190.5t-208 59.5h-250q-12 0 -14 -12l-78 -435q-3 -12 11 -12h223q19 0 16 -20l-16 -97q-3 -20 -23 -20h-223q-11 0 -14 -12z" />
<glyph unicode="&#xd1;" horiz-adv-x="1284" d="M92 20l240 1352q4 21 22 21h123q20 0 29 -21l422 -1063h8l190 1063q4 21 23 21h119q20 0 16 -21l-237 -1352q-3 -20 -23 -20h-123q-20 0 -29 20l-426 1063h-8l-188 -1063q-3 -20 -23 -20h-116q-9 0 -14.5 5.5t-4.5 14.5zM580 1597l16 93q5 21 20 36q66 60 144 60 q58 0 119 -41q53 -37 96 -37q66 0 135 66q6 6 12 2.5t4 -9.5l-16 -94q-2 -17 -20 -35q-64 -61 -144 -61q-58 0 -119 41q-50 37 -96 37q-64 0 -135 -64q-6 -6 -12 -4t-4 10z" />
<glyph unicode="&#xd2;" horiz-adv-x="1214" d="M123 385q0 115 47 364t98 355q79 160 203.5 235.5t304.5 75.5q186 0 295 -106t109 -301q0 -115 -47.5 -364.5t-100.5 -354.5q-77 -160 -201.5 -236t-304.5 -76q-186 0 -294.5 106.5t-108.5 301.5zM297 401q0 -125 67 -194.5t189 -69.5q218 0 324 213q46 92 87.5 315 t41.5 326q0 125 -67 194.5t-189 69.5q-218 0 -324 -213q-46 -92 -87.5 -315t-41.5 -326zM542 1811.5q3 7.5 11 7.5h125q24 0 39 -21l131 -215q4 -9 0.5 -14.5t-12.5 -5.5h-93q-12 0 -17.5 2.5t-14.5 13.5l-168 217q-4 8 -1 15.5z" />
<glyph unicode="&#xd3;" horiz-adv-x="1214" d="M123 385q0 115 47 364t98 355q79 160 203.5 235.5t304.5 75.5q186 0 295 -106t109 -301q0 -115 -47.5 -364.5t-100.5 -354.5q-77 -160 -201.5 -236t-304.5 -76q-186 0 -294.5 106.5t-108.5 301.5zM297 401q0 -125 67 -194.5t189 -69.5q218 0 324 213q46 92 87.5 315 t41.5 326q0 125 -67 194.5t-189 69.5q-218 0 -324 -213q-46 -92 -87.5 -315t-41.5 -326zM729.5 1569.5q-2.5 6.5 3.5 13.5l199 215q21 21 41 21h135q9 0 12 -6.5t-6 -14.5l-242 -219q-18 -16 -38 -16h-93q-9 0 -11.5 6.5z" />
<glyph unicode="&#xd4;" horiz-adv-x="1214" d="M123 385q0 115 47 364t98 355q79 160 203.5 235.5t304.5 75.5q186 0 295 -106t109 -301q0 -115 -47.5 -364.5t-100.5 -354.5q-77 -160 -201.5 -236t-304.5 -76q-186 0 -294.5 106.5t-108.5 301.5zM297 401q0 -125 67 -194.5t189 -69.5q218 0 324 213q46 92 87.5 315 t41.5 326q0 125 -67 194.5t-189 69.5q-218 0 -324 -213q-46 -92 -87.5 -315t-41.5 -326zM545 1569.5q-2 6.5 4 13.5l229 254q15 18 37 18h80q21 0 29 -18l141 -254q5 -7 2 -13.5t-12 -6.5h-78q-21 0 -33 20l-100 154h-2l-156 -154q-18 -20 -41 -20h-90q-8 0 -10 6.5z" />
<glyph unicode="&#xd5;" horiz-adv-x="1214" d="M123 385q0 115 47 364t98 355q79 160 203.5 235.5t304.5 75.5q186 0 295 -106t109 -301q0 -115 -47.5 -364.5t-100.5 -354.5q-77 -160 -201.5 -236t-304.5 -76q-186 0 -294.5 106.5t-108.5 301.5zM297 401q0 -125 67 -194.5t189 -69.5q218 0 324 213q46 92 87.5 315 t41.5 326q0 125 -67 194.5t-189 69.5q-218 0 -324 -213q-46 -92 -87.5 -315t-41.5 -326zM547 1597l16 93q5 20 21 36q66 60 143 60q58 0 119 -41q53 -37 96 -37q66 0 135 66q6 6 12.5 2.5t4.5 -9.5l-17 -94q-2 -17 -20 -35q-64 -61 -144 -61q-57 0 -118 41q-50 37 -97 37 q-64 0 -135 -64q-6 -6 -12 -4t-4 10z" />
<glyph unicode="&#xd6;" horiz-adv-x="1214" d="M123 385q0 115 47 364t98 355q79 160 203.5 235.5t304.5 75.5q186 0 295 -106t109 -301q0 -115 -47.5 -364.5t-100.5 -354.5q-77 -160 -201.5 -236t-304.5 -76q-186 0 -294.5 106.5t-108.5 301.5zM297 401q0 -125 67 -194.5t189 -69.5q218 0 324 213q46 92 87.5 315 t41.5 326q0 125 -67 194.5t-189 69.5q-218 0 -324 -213q-46 -92 -87.5 -315t-41.5 -326zM539 1614l26 143q3 21 23 21h112q20 0 17 -21l-25 -143q-4 -21 -22 -21h-115q-19 0 -16 21zM928 1614l26 143q4 21 23 21h113q20 0 16 -21l-25 -143q-3 -21 -22 -21h-115q-20 0 -16 21 z" />
<glyph unicode="&#xd7;" d="M190 279q-14 14 0 28l254 250q8 8 0 16l-254 250q-14 15 0 29l72 74q14 14 29 0l252 -248q9 -9 18 0l250 248q15 14 29 0l69 -74q6 -6 6 -14.5t-6 -14.5l-250 -248q-9 -9 0 -18l250 -250q14 -14 0 -28l-69 -74q-6 -6 -14.5 -6t-14.5 6l-252 248q-8 8 -16 0l-252 -248 q-6 -6 -14.5 -6t-14.5 6z" />
<glyph unicode="&#xd8;" horiz-adv-x="1214" d="M48.5 -54.5q-1.5 6.5 4.5 13.5l131 182q-61 99 -61 244q0 115 47 364t98 355q79 160 203.5 235.5t304.5 75.5q175 0 281 -92l82 113q11 18 30 18h82q9 0 10.5 -6t-4.5 -14l-137 -189q60 -97 60 -237q0 -115 -47.5 -364.5t-100.5 -354.5q-77 -160 -201.5 -236t-304.5 -76 q-170 0 -276 89l-78 -109q-11 -18 -33 -18h-80q-9 0 -10.5 6.5zM297 401q0 -58 10 -94l639 869q-66 81 -196 81q-221 0 -326 -215q-46 -90 -86.5 -313.5t-40.5 -327.5zM358 209q71 -74 195 -74q110 0 192.5 56.5t133.5 158.5q44 93 85.5 316.5t41.5 326.5q0 35 -11 84z" />
<glyph unicode="&#xd9;" horiz-adv-x="1255" d="M166 492l156 880q4 21 22 21h131q9 0 14 -6t3 -15l-156 -887q-30 -169 37.5 -258.5t214.5 -89.5q146 0 231.5 78t120.5 270l156 887q4 21 22 21h129q9 0 14.5 -6t4.5 -15l-160 -901q-46 -265 -176.5 -379.5t-354.5 -114.5q-227 0 -339 136.5t-70 378.5zM570.5 1811.5 q3.5 7.5 11.5 7.5h125q23 0 38 -21l132 -215q4 -9 0 -14.5t-13 -5.5h-92q-19 0 -33 16l-168 217q-4 8 -0.5 15.5z" />
<glyph unicode="&#xda;" horiz-adv-x="1255" d="M166 492l156 880q4 21 22 21h131q9 0 14 -6t3 -15l-156 -887q-30 -169 37.5 -258.5t214.5 -89.5q146 0 231.5 78t120.5 270l156 887q4 21 22 21h129q9 0 14.5 -6t4.5 -15l-160 -901q-46 -265 -176.5 -379.5t-354.5 -114.5q-227 0 -339 136.5t-70 378.5zM748.5 1569.5 q-2.5 6.5 3.5 13.5l198 215q21 21 41 21h135q10 0 12.5 -6.5t-5.5 -14.5l-242 -219q-18 -16 -39 -16h-92q-9 0 -11.5 6.5z" />
<glyph unicode="&#xdb;" horiz-adv-x="1255" d="M166 492l156 880q4 21 22 21h131q9 0 14 -6t3 -15l-156 -887q-30 -169 37.5 -258.5t214.5 -89.5q146 0 231.5 78t120.5 270l156 887q4 21 22 21h129q9 0 14.5 -6t4.5 -15l-160 -901q-46 -265 -176.5 -379.5t-354.5 -114.5q-227 0 -339 136.5t-70 378.5zM577 1551 q-2 7 5 14l229 254q15 18 37 18h80q18 0 28 -18l142 -254q4 -7 0.5 -14t-11.5 -7h-77q-19 0 -35 21l-98 153h-3l-157 -153q-18 -21 -41 -21h-88q-9 0 -11 7z" />
<glyph unicode="&#xdc;" horiz-adv-x="1255" d="M166 492l156 880q4 21 22 21h131q9 0 14 -6t3 -15l-156 -887q-30 -169 37.5 -258.5t214.5 -89.5q146 0 231.5 78t120.5 270l156 887q4 21 22 21h129q9 0 14.5 -6t4.5 -15l-160 -901q-46 -265 -176.5 -379.5t-354.5 -114.5q-227 0 -339 136.5t-70 378.5zM575 1614l27 143 q4 21 23 21h112q9 0 14 -6t3 -15l-25 -143q-3 -21 -22 -21h-115q-20 0 -17 21zM965 1614l26 143q3 21 23 21h112q20 0 17 -21l-25 -143q-4 -21 -22 -21h-115q-19 0 -16 21z" />
<glyph unicode="&#xdd;" horiz-adv-x="1040" d="M203 1370q-2 10 3 16.5t15 6.5h129q21 0 27 -21l192 -608h6l410 608q15 21 33 21h133q12 0 15.5 -7t-1.5 -16l-536 -801l-99 -549q-3 -20 -22 -20h-129q-9 0 -14.5 5.5t-4.5 14.5l99 551zM637.5 1569.5q-2.5 6.5 3.5 13.5l199 215q21 21 41 21h135q9 0 12 -6.5t-6 -14.5 l-242 -219q-18 -16 -39 -16h-92q-9 0 -11.5 6.5z" />
<glyph unicode="&#xde;" horiz-adv-x="1163" d="M94 20l238 1352q4 21 22 21h131q9 0 14 -6t3 -15l-41 -229q-3 -13 10 -13h309q171 0 266 -86.5t95 -238.5q0 -238 -139 -369t-365 -131h-311q-12 0 -15 -12l-47 -273q-3 -20 -22 -20h-131q-20 0 -17 20zM344 477q-3 -12 10 -12h297q143 0 231.5 84t88.5 229q0 91 -59 142 t-167 51h-301q-11 0 -14 -13z" />
<glyph unicode="&#xdf;" horiz-adv-x="1095" d="M88 20l174 990q35 199 147 302t318 103q160 0 245 -66.5t85 -183.5q0 -221 -176 -297v-4q100 -51 100 -184q0 -92 -31 -259.5t-67 -242.5q-51 -101 -138.5 -143.5t-224.5 -42.5h-43q-19 0 -16 20l18 109q3 20 25 20h37q76 0 124 24.5t78 84.5q20 41 47 190.5t27 200.5 q0 75 -42.5 109t-133.5 34h-23q-20 0 -16 21l19 110q2 9 8.5 15t15.5 6h39q98 0 152.5 54.5t54.5 146.5q0 129 -184 129q-124 0 -190 -59t-91 -193l-176 -994q-3 -20 -21 -20h-123q-21 0 -18 20z" />
<glyph unicode="&#xe0;" horiz-adv-x="1019" d="M80 225q0 169 111 257.5t315 88.5h215q11 0 14 13l15 80q19 107 -21 151.5t-168 44.5q-144 0 -242 -76q-19 -13 -28 2l-37 93q-7 17 6 26q62 45 150.5 72t187.5 27q196 0 268.5 -77t40.5 -255l-114 -652q-3 -20 -23 -20h-113q-19 0 -16 20l14 89h-2q-96 -132 -303 -132 q-121 0 -195.5 67.5t-74.5 180.5zM242 248q0 -63 43 -98t129 -35q111 0 185 53.5t89 146.5l21 115q3 12 -11 12h-188q-141 0 -204.5 -49t-63.5 -145zM457 1413q-4 7 0.5 14t13.5 7h119q19 0 28 -21l107 -252q3 -9 -2 -14.5t-14 -5.5h-84q-21 0 -33 20z" />
<glyph unicode="&#xe1;" horiz-adv-x="1019" d="M80 225q0 169 111 257.5t315 88.5h215q11 0 14 13l15 80q19 107 -21 151.5t-168 44.5q-144 0 -242 -76q-19 -13 -28 2l-37 93q-7 17 6 26q62 45 150.5 72t187.5 27q196 0 268.5 -77t40.5 -255l-114 -652q-3 -20 -23 -20h-113q-19 0 -16 20l14 89h-2q-96 -132 -303 -132 q-121 0 -195.5 67.5t-74.5 180.5zM242 248q0 -63 43 -98t129 -35q111 0 185 53.5t89 146.5l21 115q3 12 -11 12h-188q-141 0 -204.5 -49t-63.5 -145zM571 1146.5q-4 5.5 2 14.5l189 252q15 21 39 21h127q9 0 11 -8t-5 -15l-223 -250q-17 -20 -41 -20h-86q-9 0 -13 5.5z" />
<glyph unicode="&#xe2;" horiz-adv-x="1019" d="M80 225q0 169 111 257.5t315 88.5h215q11 0 14 13l15 80q19 107 -21 151.5t-168 44.5q-144 0 -242 -76q-19 -13 -28 2l-37 93q-7 17 6 26q62 45 150.5 72t187.5 27q196 0 268.5 -77t40.5 -255l-114 -652q-3 -20 -23 -20h-113q-19 0 -16 20l14 89h-2q-96 -132 -303 -132 q-121 0 -195.5 67.5t-74.5 180.5zM242 248q0 -63 43 -98t129 -35q111 0 185 53.5t89 146.5l21 115q3 12 -11 12h-188q-141 0 -204.5 -49t-63.5 -145zM385 1147.5q-2 6.5 4 13.5l229 254q16 19 37 19h80q21 0 29 -19l141 -254q5 -7 2 -13.5t-12 -6.5h-78q-21 0 -33 20 l-100 154h-2l-156 -154q-18 -20 -41 -20h-90q-8 0 -10 6.5z" />
<glyph unicode="&#xe3;" horiz-adv-x="1019" d="M80 225q0 169 111 257.5t315 88.5h215q11 0 14 13l15 80q19 107 -21 151.5t-168 44.5q-144 0 -242 -76q-19 -13 -28 2l-37 93q-7 17 6 26q62 45 150.5 72t187.5 27q196 0 268.5 -77t40.5 -255l-114 -652q-3 -20 -23 -20h-113q-19 0 -16 20l14 89h-2q-96 -132 -303 -132 q-121 0 -195.5 67.5t-74.5 180.5zM242 248q0 -63 43 -98t129 -35q111 0 185 53.5t89 146.5l21 115q3 12 -11 12h-188q-141 0 -204.5 -49t-63.5 -145zM393 1206l15 94q5 21 22 35q65 62 141 62q59 0 119 -43q23 -14 33 -19.5t28.5 -11.5t36.5 -6q62 0 134 65q6 6 12 4t4 -10 l-14 -94q-6 -20 -23 -35q-62 -59 -141 -59q-62 0 -119 41q-53 37 -98 37q-64 0 -133 -66q-6 -6 -12.5 -3t-4.5 9z" />
<glyph unicode="&#xe4;" horiz-adv-x="1019" d="M80 225q0 169 111 257.5t315 88.5h215q11 0 14 13l15 80q19 107 -21 151.5t-168 44.5q-144 0 -242 -76q-19 -13 -28 2l-37 93q-7 17 6 26q62 45 150.5 72t187.5 27q196 0 268.5 -77t40.5 -255l-114 -652q-3 -20 -23 -20h-113q-19 0 -16 20l14 89h-2q-96 -132 -303 -132 q-121 0 -195.5 67.5t-74.5 180.5zM242 248q0 -63 43 -98t129 -35q111 0 185 53.5t89 146.5l21 115q3 12 -11 12h-188q-141 0 -204.5 -49t-63.5 -145zM391 1231l27 141q4 21 22 21h113q19 0 16 -21l-24 -141q-3 -21 -23 -21h-114q-20 0 -17 21zM780 1231l27 141q3 21 22 21 h113q20 0 16 -21l-24 -141q-4 -21 -23 -21h-114q-9 0 -14 6t-3 15z" />
<glyph unicode="&#xe5;" horiz-adv-x="1019" d="M80 225q0 169 111 257.5t315 88.5h215q11 0 14 13l15 80q19 107 -21 151.5t-168 44.5q-144 0 -242 -76q-19 -13 -28 2l-37 93q-7 17 6 26q62 45 150.5 72t187.5 27q196 0 268.5 -77t40.5 -255l-114 -652q-3 -20 -23 -20h-113q-19 0 -16 20l14 89h-2q-96 -132 -303 -132 q-121 0 -195.5 67.5t-74.5 180.5zM242 248q0 -63 43 -98t129 -35q111 0 185 53.5t89 146.5l21 115q3 12 -11 12h-188q-141 0 -204.5 -49t-63.5 -145zM483 1253q0 93 61.5 159.5t157.5 66.5q69 0 112.5 -43.5t43.5 -112.5q0 -93 -62.5 -159t-158.5 -66q-69 0 -111.5 43 t-42.5 112zM565 1266q0 -39 23.5 -63.5t62.5 -24.5q52 0 87.5 37.5t35.5 95.5q0 39 -23 63.5t-63 24.5q-51 0 -87 -38t-36 -95z" />
<glyph unicode="&#xe6;" horiz-adv-x="1597" d="M80 225q0 169 111 257.5t315 88.5h215q11 0 14 13l15 80q19 107 -21 151.5t-168 44.5q-144 0 -242 -76q-19 -13 -28 2l-37 93q-7 17 6 26q62 45 150.5 72t187.5 27q244 0 289 -136h2q120 136 309 136q145 0 235.5 -87.5t90.5 -246.5q0 -63 -23 -207q-2 -9 -8.5 -15 t-15.5 -6h-598q-14 0 -17 -12q-6 -33 -6 -84q0 -219 207 -219q154 0 266 117q16 13 31 2l63 -72q16 -13 -2 -31q-72 -75 -170.5 -120.5t-214.5 -45.5q-229 0 -303 175h-2q-116 -175 -364 -175q-136 0 -211.5 67t-75.5 181zM242 248q0 -63 43 -98t129 -35q111 0 185 53.5 t89 146.5l21 115q3 12 -11 12h-188q-141 0 -204.5 -49t-63.5 -145zM891 584q-3 -13 8 -13h444q12 0 15 13q10 48 10 82q0 97 -49 145.5t-141 48.5q-82 0 -147 -41t-103 -117q-23 -48 -37 -118z" />
<glyph unicode="&#xe7;" horiz-adv-x="919" d="M94 315q0 95 24 218.5t68 216.5q60 124 165 189t245 65q214 0 291 -177q6 -17 -8 -28l-88 -64q-19 -11 -29 6q-31 60 -73.5 87.5t-108.5 27.5q-74 0 -138.5 -42.5t-103.5 -119.5q-35 -72 -56.5 -178t-21.5 -172q0 -217 189 -217q123 0 229 117q14 17 27 4l73 -76 q13 -13 0 -29q-120 -148 -313 -163l-133 -269q-10 -20 -35 -20h-104q-21 0 -11 20l156 275q-117 23 -180.5 108.5t-63.5 220.5z" />
<glyph unicode="&#xe8;" horiz-adv-x="993" d="M94 322q0 102 22.5 221t63.5 202q123 259 414 259q146 0 237 -87.5t91 -246.5q0 -68 -25 -207q-1 -9 -8.5 -15t-16.5 -6h-600q-11 0 -14 -12q-6 -33 -6 -84q0 -112 52 -165.5t157 -53.5q149 0 266 117q16 13 31 2l63 -72q15 -14 -2 -31q-74 -75 -172.5 -120.5 t-212.5 -45.5q-166 0 -253 90.5t-87 254.5zM289 584q-3 -13 8 -13h442q14 0 17 13q8 39 8 82q0 194 -191 194q-81 0 -145 -40t-100 -115q-26 -53 -39 -121zM393 1413q-4 7 1 14t14 7h118q20 0 29 -21l107 -252q3 -9 -2.5 -14.5t-14.5 -5.5h-84q-21 0 -33 20z" />
<glyph unicode="&#xe9;" horiz-adv-x="993" d="M94 322q0 102 22.5 221t63.5 202q123 259 414 259q146 0 237 -87.5t91 -246.5q0 -68 -25 -207q-1 -9 -8.5 -15t-16.5 -6h-600q-11 0 -14 -12q-6 -33 -6 -84q0 -112 52 -165.5t157 -53.5q149 0 266 117q16 13 31 2l63 -72q15 -14 -2 -31q-74 -75 -172.5 -120.5 t-212.5 -45.5q-166 0 -253 90.5t-87 254.5zM289 584q-3 -13 8 -13h442q14 0 17 13q8 39 8 82q0 194 -191 194q-81 0 -145 -40t-100 -115q-26 -53 -39 -121zM517.5 1146.5q-3.5 5.5 2.5 14.5l189 252q15 21 39 21h126q9 0 11.5 -8t-4.5 -15l-224 -250q-17 -20 -41 -20h-86 q-9 0 -12.5 5.5z" />
<glyph unicode="&#xea;" horiz-adv-x="993" d="M94 322q0 102 22.5 221t63.5 202q123 259 414 259q146 0 237 -87.5t91 -246.5q0 -68 -25 -207q-1 -9 -8.5 -15t-16.5 -6h-600q-11 0 -14 -12q-6 -33 -6 -84q0 -112 52 -165.5t157 -53.5q149 0 266 117q16 13 31 2l63 -72q15 -14 -2 -31q-74 -75 -172.5 -120.5 t-212.5 -45.5q-166 0 -253 90.5t-87 254.5zM289 584q-3 -13 8 -13h442q14 0 17 13q8 39 8 82q0 194 -191 194q-81 0 -145 -40t-100 -115q-26 -53 -39 -121zM340 1147.5q-2 6.5 4 13.5l229 254q16 19 37 19h80q21 0 29 -19l141 -254q5 -7 2 -13.5t-12 -6.5h-78q-20 0 -33 20 l-100 154h-2l-156 -154q-17 -20 -41 -20h-90q-8 0 -10 6.5z" />
<glyph unicode="&#xeb;" horiz-adv-x="993" d="M94 322q0 102 22.5 221t63.5 202q123 259 414 259q146 0 237 -87.5t91 -246.5q0 -68 -25 -207q-1 -9 -8.5 -15t-16.5 -6h-600q-11 0 -14 -12q-6 -33 -6 -84q0 -112 52 -165.5t157 -53.5q149 0 266 117q16 13 31 2l63 -72q15 -14 -2 -31q-74 -75 -172.5 -120.5 t-212.5 -45.5q-166 0 -253 90.5t-87 254.5zM289 584q-3 -13 8 -13h442q14 0 17 13q8 39 8 82q0 194 -191 194q-81 0 -145 -40t-100 -115q-26 -53 -39 -121zM354 1231l27 141q3 21 22 21h113q20 0 16 -21l-24 -141q-4 -21 -23 -21h-114q-9 0 -14 6t-3 15zM743 1231l27 141 q4 21 23 21h112q9 0 14 -6t3 -15l-25 -141q-3 -21 -23 -21h-114q-20 0 -17 21z" />
<glyph unicode="&#xec;" horiz-adv-x="487" d="M88 20l166 941q3 20 22 20h125q20 0 17 -20l-168 -941q-3 -20 -21 -20h-123q-21 0 -18 20zM137 1413q-4 7 1 14t14 7h118q20 0 29 -21l107 -252q3 -9 -2.5 -14.5t-14.5 -5.5h-84q-21 0 -33 20z" />
<glyph unicode="&#xed;" horiz-adv-x="487" d="M88 20l166 941q3 20 22 20h125q20 0 17 -20l-168 -941q-3 -20 -21 -20h-123q-21 0 -18 20zM311 1146.5q-4 5.5 2 14.5l189 252q15 21 39 21h127q9 0 11 -8t-5 -15l-223 -250q-17 -20 -41 -20h-86q-9 0 -13 5.5z" />
<glyph unicode="&#xee;" horiz-adv-x="487" d="M88 20l166 941q3 20 22 20h125q20 0 17 -20l-168 -941q-3 -20 -21 -20h-123q-21 0 -18 20zM109 1147.5q-2 6.5 4 13.5l229 254q16 19 37 19h80q20 0 28 -19l142 -254q5 -7 1.5 -13.5t-12.5 -6.5h-77q-21 0 -33 20l-100 154h-2l-156 -154q-17 -20 -41 -20h-90 q-8 0 -10 6.5z" />
<glyph unicode="&#xef;" horiz-adv-x="487" d="M88 20l166 941q3 20 22 20h125q20 0 17 -20l-168 -941q-3 -20 -21 -20h-123q-21 0 -18 20zM109 1231l26 141q3 21 23 21h112q20 0 17 -21l-25 -141q-4 -21 -22 -21h-115q-19 0 -16 21zM498 1231l26 141q4 21 23 21h112q9 0 14 -6t3 -15l-25 -141q-3 -21 -22 -21h-115 q-20 0 -16 21z" />
<glyph unicode="&#xf0;" horiz-adv-x="1011" d="M100 326q0 208 82 383q58 122 153 185.5t216 63.5q97 0 151 -47h5l-113 205l-203 -59q-19 -6 -22 12l-7 80q-3 21 19 27l154 45l-82 151q-5 8 -1 14.5t13 6.5h133q19 0 31 -21l57 -106l188 57q9 3 16 -0.5t7 -11.5l6 -82q3 -21 -18 -27l-140 -41l68 -121 q119 -215 119 -426q0 -202 -88 -389q-60 -123 -167 -185.5t-247 -62.5q-161 0 -245.5 92.5t-84.5 256.5zM264 342q0 -213 191 -213q164 0 243 158q29 58 49.5 146.5t20.5 164.5q0 104 -48.5 158.5t-144.5 54.5q-162 0 -241 -158q-30 -56 -50 -145t-20 -166z" />
<glyph unicode="&#xf1;" horiz-adv-x="1069" d="M88 20l166 941q3 20 22 20h125q20 0 17 -20l-19 -93h2q48 63 122.5 99.5t166.5 36.5q154 0 224 -99.5t40 -269.5l-110 -615q-3 -20 -23 -20h-123q-8 0 -12.5 5.5t-3.5 14.5l102 576q22 126 -19.5 193t-146.5 67q-95 0 -169.5 -69.5t-94.5 -178.5l-104 -588 q-3 -20 -21 -20h-125q-8 0 -12.5 5.5t-3.5 14.5zM383 1206l14 94q5 19 23 35q65 62 141 62q59 0 119 -43q23 -14 33 -19.5t28.5 -11.5t36.5 -6q61 0 133 65q6 6 12.5 4t4.5 -10l-15 -94q-6 -21 -22 -35q-62 -59 -141 -59q-62 0 -119 41q-53 37 -99 37q-64 0 -133 -66 q-6 -6 -12 -3t-4 9z" />
<glyph unicode="&#xf2;" horiz-adv-x="1011" d="M94 315q0 99 28 231t66 208q124 250 416 250q158 0 246 -89.5t88 -246.5q0 -99 -29 -231t-67 -210q-121 -250 -414 -250q-159 0 -246.5 89.5t-87.5 248.5zM260 342q0 -215 191 -215q161 0 243 160q28 58 52 170.5t24 183.5q0 215 -190 215q-161 0 -242 -162 q-29 -56 -53.5 -169t-24.5 -183zM401 1413q-4 7 1 14t14 7h119q19 0 28 -21l107 -252q3 -9 -2.5 -14.5t-14.5 -5.5h-84q-13 0 -18.5 3.5t-13.5 16.5z" />
<glyph unicode="&#xf3;" horiz-adv-x="1011" d="M94 315q0 99 28 231t66 208q124 250 416 250q158 0 246 -89.5t88 -246.5q0 -99 -29 -231t-67 -210q-121 -250 -414 -250q-159 0 -246.5 89.5t-87.5 248.5zM260 342q0 -215 191 -215q161 0 243 160q28 58 52 170.5t24 183.5q0 215 -190 215q-161 0 -242 -162 q-29 -56 -53.5 -169t-24.5 -183zM546.5 1146.5q-3.5 5.5 2.5 14.5l188 252q15 21 39 21h127q9 0 11 -8t-5 -15l-223 -250q-18 -20 -41 -20h-86q-9 0 -12.5 5.5z" />
<glyph unicode="&#xf4;" horiz-adv-x="1011" d="M94 315q0 99 28 231t66 208q124 250 416 250q158 0 246 -89.5t88 -246.5q0 -99 -29 -231t-67 -210q-121 -250 -414 -250q-159 0 -246.5 89.5t-87.5 248.5zM260 342q0 -215 191 -215q161 0 243 160q28 58 52 170.5t24 183.5q0 215 -190 215q-161 0 -242 -162 q-29 -56 -53.5 -169t-24.5 -183zM363 1147.5q-2 6.5 4 13.5l229 254q16 19 37 19h80q20 0 28 -19l142 -254q5 -7 1.5 -13.5t-12.5 -6.5h-77q-21 0 -33 20l-100 154h-3l-155 -154q-18 -20 -41 -20h-90q-8 0 -10 6.5z" />
<glyph unicode="&#xf5;" horiz-adv-x="1011" d="M94 315q0 99 28 231t66 208q124 250 416 250q158 0 246 -89.5t88 -246.5q0 -99 -29 -231t-67 -210q-121 -250 -414 -250q-159 0 -246.5 89.5t-87.5 248.5zM260 342q0 -215 191 -215q161 0 243 160q28 58 52 170.5t24 183.5q0 215 -190 215q-161 0 -242 -162 q-29 -56 -53.5 -169t-24.5 -183zM385 1206l14 94q5 19 23 35q65 62 141 62q59 0 119 -43q23 -14 33 -19.5t28.5 -11.5t36.5 -6q61 0 133 65q6 6 12.5 4t4.5 -10l-15 -94q-6 -21 -22 -35q-62 -59 -141 -59q-62 0 -119 41q-53 37 -98 37q-65 0 -134 -66q-6 -6 -12 -3t-4 9z " />
<glyph unicode="&#xf6;" horiz-adv-x="1011" d="M94 315q0 99 28 231t66 208q124 250 416 250q158 0 246 -89.5t88 -246.5q0 -99 -29 -231t-67 -210q-121 -250 -414 -250q-159 0 -246.5 89.5t-87.5 248.5zM260 342q0 -215 191 -215q161 0 243 160q28 58 52 170.5t24 183.5q0 215 -190 215q-161 0 -242 -162 q-29 -56 -53.5 -169t-24.5 -183zM367 1231l26 141q3 21 23 21h112q20 0 17 -21l-25 -141q-4 -21 -22 -21h-115q-19 0 -16 21zM756 1231l26 141q4 21 23 21h113q20 0 16 -21l-25 -141q-3 -21 -22 -21h-115q-20 0 -16 21z" />
<glyph unicode="&#xf7;" d="M123 512v106q0 21 20 21h813q9 0 15 -6t6 -15v-106q0 -20 -21 -20h-813q-20 0 -20 20zM438 238q0 47 32.5 79.5t78.5 32.5t77 -32.5t31 -79.5q0 -46 -31.5 -79.5t-76.5 -33.5q-46 0 -78.5 33.5t-32.5 79.5zM438 893q0 46 32.5 78.5t78.5 32.5q45 0 76.5 -32.5t31.5 -78.5 q0 -47 -31 -80t-77 -33t-78.5 33t-32.5 80z" />
<glyph unicode="&#xf8;" horiz-adv-x="1011" d="M22.5 -54.5q-1.5 6.5 4.5 13.5l120 147q-53 83 -53 209q0 99 28 231t66 208q124 250 416 250q140 0 227 -74l76 92q17 20 37 20h53q9 0 11 -6t-4 -14l-121 -150q55 -83 55 -204q0 -99 -29 -231t-67 -210q-121 -250 -414 -250q-142 0 -229 74l-76 -92q-17 -20 -37 -20h-53 q-9 0 -10.5 6.5zM258 342q0 -47 10 -92l455 553q-47 53 -143 53q-165 0 -246 -162q-28 -57 -52 -169.5t-24 -182.5zM305 178q50 -53 146 -53q162 0 245 162q28 58 52 170.5t24 183.5q0 45 -10 90z" />
<glyph unicode="&#xf9;" horiz-adv-x="1060" d="M133 348l111 613q3 20 20 20h123q19 0 16 -20l-102 -574q-45 -258 164 -258q94 0 167 67.5t93 178.5l102 586q3 20 23 20h125q8 0 12.5 -5.5t3.5 -14.5l-166 -941q-3 -20 -22 -20h-125q-8 0 -12.5 5.5t-3.5 14.5l16 93h-2q-112 -136 -283 -136q-153 0 -222 100.5 t-38 270.5zM446 1413q-4 7 1 14t14 7h119q19 0 28 -21l107 -252q3 -9 -2.5 -14.5t-14.5 -5.5h-84q-13 0 -18.5 3.5t-13.5 16.5z" />
<glyph unicode="&#xfa;" horiz-adv-x="1060" d="M133 348l111 613q3 20 20 20h123q19 0 16 -20l-102 -574q-45 -258 164 -258q94 0 167 67.5t93 178.5l102 586q3 20 23 20h125q8 0 12.5 -5.5t3.5 -14.5l-166 -941q-3 -20 -22 -20h-125q-8 0 -12.5 5.5t-3.5 14.5l16 93h-2q-112 -136 -283 -136q-153 0 -222 100.5 t-38 270.5zM556.5 1146.5q-3.5 5.5 2.5 14.5l189 252q15 21 38 21h127q9 0 11.5 -8t-4.5 -15l-224 -250q-18 -20 -41 -20h-86q-9 0 -12.5 5.5z" />
<glyph unicode="&#xfb;" horiz-adv-x="1060" d="M133 348l111 613q3 20 20 20h123q19 0 16 -20l-102 -574q-45 -258 164 -258q94 0 167 67.5t93 178.5l102 586q3 20 23 20h125q8 0 12.5 -5.5t3.5 -14.5l-166 -941q-3 -20 -22 -20h-125q-8 0 -12.5 5.5t-3.5 14.5l16 93h-2q-112 -136 -283 -136q-153 0 -222 100.5 t-38 270.5zM383 1147.5q-2 6.5 4 13.5l229 254q16 19 37 19h80q21 0 29 -19l141 -254q5 -7 2 -13.5t-12 -6.5h-78q-21 0 -33 20l-100 154h-2l-156 -154q-18 -20 -41 -20h-90q-8 0 -10 6.5z" />
<glyph unicode="&#xfc;" horiz-adv-x="1060" d="M133 348l111 613q3 20 20 20h123q19 0 16 -20l-102 -574q-45 -258 164 -258q94 0 167 67.5t93 178.5l102 586q3 20 23 20h125q8 0 12.5 -5.5t3.5 -14.5l-166 -941q-3 -20 -22 -20h-125q-8 0 -12.5 5.5t-3.5 14.5l16 93h-2q-112 -136 -283 -136q-153 0 -222 100.5 t-38 270.5zM381 1231l27 141q4 21 22 21h113q19 0 16 -21l-24 -141q-3 -21 -23 -21h-115q-19 0 -16 21zM770 1231l27 141q3 21 22 21h113q20 0 16 -21l-24 -141q-4 -21 -23 -21h-115q-20 0 -16 21z" />
<glyph unicode="&#xfd;" horiz-adv-x="942" d="M10 -348l19 108q3 21 24 21h35q59 0 100 33.5t88 122.5l48 92l-181 932q-3 20 17 20h129q11 0 16 -4t6 -16l121 -717h4l373 717q7 20 27 20h131q11 0 14.5 -5.5t-0.5 -14.5l-559 -1041q-91 -167 -165 -228t-179 -61h-51q-9 0 -14.5 6t-2.5 15zM505.5 1146.5 q-3.5 5.5 2.5 14.5l188 252q15 21 39 21h127q9 0 11 -8t-5 -15l-223 -250q-17 -20 -41 -20h-86q-9 0 -12.5 5.5z" />
<glyph unicode="&#xfe;" horiz-adv-x="1056" d="M25 -348l303 1720q4 21 22 21h123q19 0 16 -21l-88 -506h2q104 138 293 138q136 0 211.5 -86.5t75.5 -235.5q0 -108 -29.5 -250.5t-70.5 -226.5q-113 -228 -363 -228q-98 0 -160.5 40t-89.5 104h-2l-82 -469q-4 -21 -20 -21h-125q-19 0 -16 21zM315 328q0 -95 47 -148 t140 -53q159 0 235 156q32 63 55 176t23 192q0 205 -184 205q-162 0 -242 -162q-25 -50 -49.5 -171.5t-24.5 -194.5z" />
<glyph unicode="&#xff;" horiz-adv-x="942" d="M10 -348l19 108q3 21 24 21h35q59 0 100 33.5t88 122.5l48 92l-181 932q-3 20 17 20h129q11 0 16 -4t6 -16l121 -717h4l373 717q7 20 27 20h131q11 0 14.5 -5.5t-0.5 -14.5l-559 -1041q-91 -167 -165 -228t-179 -61h-51q-9 0 -14.5 6t-2.5 15zM330 1231l26 141 q4 21 23 21h113q20 0 16 -21l-25 -141q-3 -21 -22 -21h-115q-20 0 -16 21zM719 1231l26 141q3 21 23 21h113q19 0 16 -21l-25 -141q-4 -21 -22 -21h-115q-19 0 -16 21z" />
<glyph unicode="&#x152;" horiz-adv-x="1863" d="M123 385q0 115 47 364t98 355q79 160 203.5 235.5t304.5 75.5q105 0 180 -40t109 -115h2l20 112q3 21 23 21h799q9 0 14 -6t4 -15l-20 -119q-3 -20 -25 -20h-635q-11 0 -14 -12l-76 -424q-3 -13 10 -13h541q19 0 16 -20l-20 -119q-3 -20 -25 -20h-540q-12 0 -15 -13 l-80 -440q-3 -12 11 -12h637q20 0 16 -21l-20 -119q-3 -20 -23 -20h-799q-21 0 -18 20l20 111h-2q-124 -154 -340 -154q-186 0 -294.5 106.5t-108.5 301.5zM297 401q0 -125 67 -194.5t189 -69.5q218 0 324 213q46 92 87.5 315t41.5 326q0 125 -67 194.5t-189 69.5 q-218 0 -324 -213q-46 -92 -87.5 -315t-41.5 -326z" />
<glyph unicode="&#x153;" horiz-adv-x="1640" d="M94 315q0 99 28 231t66 208q124 250 416 250q221 0 287 -177h4q61 89 151.5 133t194.5 44q145 0 235.5 -87.5t90.5 -246.5q0 -79 -23 -207q-4 -21 -24 -21h-598q-14 0 -17 -12q-6 -33 -6 -84q0 -219 207 -219q151 0 268 117q14 14 29 2l63 -72q14 -14 -2 -31 q-72 -75 -170.5 -120.5t-212.5 -45.5q-238 0 -299 181h-4q-127 -181 -350 -181q-159 0 -246.5 89.5t-87.5 248.5zM260 342q0 -215 191 -215q161 0 243 160q28 58 52 170.5t24 183.5q0 215 -190 215q-161 0 -242 -162q-29 -56 -53.5 -169t-24.5 -183zM934 584q-3 -13 10 -13 h442q14 0 17 13q8 58 8 82q0 97 -49 145.5t-141 48.5q-82 0 -146 -39.5t-100 -115.5q-29 -60 -41 -121z" />
<glyph unicode="&#x178;" horiz-adv-x="1040" d="M203 1370q-2 10 3 16.5t15 6.5h129q21 0 27 -21l192 -608h6l410 608q15 21 33 21h133q12 0 15.5 -7t-1.5 -16l-536 -801l-99 -549q-3 -20 -22 -20h-129q-9 0 -14.5 5.5t-4.5 14.5l99 551zM444 1614l27 143q3 21 23 21h112q20 0 17 -21l-25 -143q-4 -21 -23 -21h-114 q-9 0 -14 6t-3 15zM834 1614l26 143q4 21 23 21h112q9 0 14 -6t3 -15l-25 -143q-3 -21 -22 -21h-115q-20 0 -16 21z" />
<glyph unicode="&#x2c6;" horiz-adv-x="833" d="M277 1147.5q-2 6.5 4 13.5l229 254q16 19 37 19h80q20 0 28 -19l142 -254q5 -7 1.5 -13.5t-12.5 -6.5h-77q-21 0 -33 20l-101 154h-2l-155 -154q-18 -20 -41 -20h-90q-8 0 -10 6.5z" />
<glyph unicode="&#x2dc;" horiz-adv-x="833" d="M293 1206l14 94q5 19 23 35q65 62 141 62q59 0 119 -43q23 -14 33 -19.5t28.5 -11.5t36.5 -6q61 0 133 65q6 6 12.5 4t4.5 -10l-15 -94q-6 -21 -22 -35q-62 -59 -142 -59q-61 0 -118 41q-53 37 -99 37q-64 0 -133 -66q-6 -6 -12 -3t-4 9z" />
<glyph unicode="&#x2000;" horiz-adv-x="938" />
<glyph unicode="&#x2001;" horiz-adv-x="1876" />
<glyph unicode="&#x2002;" horiz-adv-x="938" />
<glyph unicode="&#x2003;" horiz-adv-x="1876" />
<glyph unicode="&#x2004;" horiz-adv-x="625" />
<glyph unicode="&#x2005;" horiz-adv-x="469" />
<glyph unicode="&#x2006;" horiz-adv-x="312" />
<glyph unicode="&#x2007;" horiz-adv-x="312" />
<glyph unicode="&#x2008;" horiz-adv-x="234" />
<glyph unicode="&#x2009;" horiz-adv-x="375" />
<glyph unicode="&#x200a;" horiz-adv-x="104" />
<glyph unicode="&#x2010;" horiz-adv-x="739" d="M102 492l19 108q3 18 24 18h519q19 0 16 -20l-16 -109q-3 -18 -25 -18h-520q-9 0 -14 6t-3 15z" />
<glyph unicode="&#x2011;" horiz-adv-x="739" d="M102 492l19 108q3 18 24 18h519q19 0 16 -20l-16 -109q-3 -18 -25 -18h-520q-9 0 -14 6t-3 15z" />
<glyph unicode="&#x2012;" horiz-adv-x="739" d="M102 492l19 108q3 18 24 18h519q19 0 16 -20l-16 -109q-3 -18 -25 -18h-520q-9 0 -14 6t-3 15z" />
<glyph unicode="&#x2013;" horiz-adv-x="1007" d="M59 496l17 100q1 9 7.5 14.5t14.5 5.5h875q17 0 14 -20l-16 -102q-3 -19 -23 -19h-872q-20 0 -17 21z" />
<glyph unicode="&#x2014;" horiz-adv-x="1669" d="M59 496l17 100q1 9 7.5 14.5t14.5 5.5h1534q20 0 17 -20l-17 -102q-3 -19 -22 -19h-1534q-20 0 -17 21z" />
<glyph unicode="&#x2018;" horiz-adv-x="423" d="M244 1057l28 166q6 30 19 43l121 114q17 17 26 17q20 0 17 -21l-56 -319q-3 -21 -22 -21h-117q-20 0 -16 21z" />
<glyph unicode="&#x2019;" horiz-adv-x="423" d="M244 1053l55 319q3 21 23 21h116q20 0 17 -21l-29 -166q-5 -25 -20 -43l-119 -114q-15 -15 -27 -15q-19 0 -16 19z" />
<glyph unicode="&#x201a;" horiz-adv-x="423" d="M29 -156l55 318q3 20 22 20h119q18 0 15 -20l-29 -166q-6 -28 -18 -43l-119 -113q-13 -16 -29 -16q-19 0 -16 20z" />
<glyph unicode="&#x201c;" horiz-adv-x="727" d="M244 1057l28 166q6 30 19 43l121 114q17 17 26 17q20 0 17 -21l-56 -319q-3 -21 -22 -21h-117q-20 0 -16 21zM547 1057l28 166q5 27 21 43l119 114q17 17 28 17q8 0 12 -6t3 -15l-56 -319q-4 -21 -22 -21h-117q-19 0 -16 21z" />
<glyph unicode="&#x201d;" horiz-adv-x="727" d="M244 1053l55 319q3 21 23 21h116q20 0 17 -21l-29 -166q-5 -25 -20 -43l-119 -114q-15 -15 -27 -15q-19 0 -16 19zM547 1053l55 319q4 21 23 21h118q19 0 15 -21l-29 -166q-6 -28 -18 -43l-119 -114q-15 -15 -29 -15q-19 0 -16 19z" />
<glyph unicode="&#x201e;" horiz-adv-x="727" d="M29 -156l55 318q3 20 22 20h119q18 0 15 -20l-29 -166q-6 -28 -18 -43l-119 -113q-13 -16 -29 -16q-19 0 -16 20zM334 -156l55 318q3 20 23 20h116q20 0 17 -20l-29 -166q-5 -25 -20 -43l-119 -113q-13 -16 -29 -16q-17 0 -14 20z" />
<glyph unicode="&#x2022;" horiz-adv-x="784" d="M174 631q0 115 73 188.5t187 73.5q113 0 186.5 -73.5t73.5 -188.5t-73.5 -188.5t-186.5 -73.5q-114 0 -187 73.5t-73 188.5z" />
<glyph unicode="&#x2026;" horiz-adv-x="1378" d="M14 20l29 170q3 21 23 21h143q9 0 14 -6t4 -15l-28 -170q-3 -20 -23 -20h-143q-9 0 -14.5 5.5t-4.5 14.5zM475 20l27 170q4 21 22 21h146q20 0 16 -21l-27 -170q-3 -20 -22 -20h-145q-20 0 -17 20zM934 20l29 170q3 21 22 21h143q9 0 14.5 -6t4.5 -15l-29 -170 q-3 -20 -22 -20h-144q-21 0 -18 20z" />
<glyph unicode="&#x202f;" horiz-adv-x="375" />
<glyph unicode="&#x2039;" horiz-adv-x="612" d="M100 526q-14 14 4 29l435 387q6 6 12.5 3.5t5.5 -11.5l-22 -148q-5 -21 -25 -41l-236 -202q-10 -8 -4 -17l162 -209q15 -18 10 -38l-20 -132q-1 -9 -9 -11.5t-14 3.5z" />
<glyph unicode="&#x203a;" horiz-adv-x="612" d="M90 147l25 148q3 22 22 39l236 205q10 7 4 16l-160 207q-15 17 -12 41l22 131q1 9 9 11.5t12 -3.5l301 -387q10 -17 -4 -29l-436 -387q-6 -6 -13 -3.5t-6 11.5z" />
<glyph unicode="&#x205f;" horiz-adv-x="469" />
<glyph unicode="&#x20ac;" d="M88 530l14 84q4 21 23 21h82q11 0 14 12l21 113q4 12 -9 12h-83q-20 0 -17 21l14 81q1 9 8.5 15t16.5 6h82q11 0 14 12q28 154 70 240q64 132 172.5 200t249.5 68q133 0 212.5 -68t106.5 -176q6 -19 -12 -26l-106 -47q-19 -8 -25 10q-26 79 -71.5 117.5t-127.5 38.5 q-169 0 -248 -162q-39 -83 -57 -195q-3 -12 10 -12h379q9 0 14 -6t3 -15l-33 -81q-11 -21 -27 -21h-358q-11 0 -14 -12l-19 -113q-3 -12 10 -12h338q9 0 14 -6t3 -15l-35 -84q-10 -20 -27 -20h-315q-12 0 -15 -12q-18 -101 -18 -158q0 -211 190 -211q147 0 256 158 q11 17 29 10l94 -51q15 -11 7 -27q-69 -111 -172.5 -176.5t-237.5 -65.5q-160 0 -246 89t-86 253q0 50 21 179q3 12 -11 12h-82q-19 0 -16 20z" />
<glyph unicode="&#x2122;" horiz-adv-x="1701" d="M170 1300v72q0 21 20 21h584q9 0 15 -6t6 -15v-72q0 -20 -21 -20h-215q-12 0 -12 -12v-662q0 -20 -21 -20h-86q-20 0 -20 20v662q0 12 -12 12h-218q-20 0 -20 20zM940 606v766q0 9 6 15t15 6h75q18 0 27 -19l248 -524h6l242 524q9 19 26 19h76q20 0 20 -21v-766 q0 -20 -20 -20h-78q-20 0 -20 20v508h-4l-191 -393q-10 -21 -27 -21h-61q-16 0 -27 21l-190 393h-4v-508q0 -20 -21 -20h-77q-21 0 -21 20z" />
<glyph unicode="&#x25fc;" horiz-adv-x="983" d="M0 0v983h983v-983h-983z" />
</font>
</defs>
</svg>
