<?xml version="1.0" standalone="no"?>
<!DOCTYPE svg PUBLIC "-//W3C//DTD SVG 1.1//EN" "http://www.w3.org/Graphics/SVG/1.1/DTD/svg11.dtd" >
<svg xmlns="http://www.w3.org/2000/svg" xmlns:xlink="http://www.w3.org/1999/xlink" version="1.1">
<metadata></metadata>
<defs>
<font id="din_next_lt_promedium_italic" horiz-adv-x="1079" >
<font-face units-per-em="2048" ascent="1536" descent="-512" />
<missing-glyph horiz-adv-x="466" />
<glyph unicode="&#xfb01;" horiz-adv-x="1148" d="M102 20l140 787q3 12 -9 12h-67q-18 0 -14 21l22 127q3 20 21 20h67q11 0 14 12l13 68q30 170 119.5 248t246.5 78h88q9 0 14 -6t3 -15l-29 -153q-3 -21 -20 -21h-60q-75 0 -104.5 -25.5t-42.5 -101.5l-12 -72q-3 -12 8 -12h170q21 0 18 -20l-22 -127q-4 -21 -25 -21 h-168q-11 0 -14 -12l-140 -787q-3 -20 -20 -20h-178q-9 0 -14.5 5.5t-4.5 14.5zM717 20l168 947q3 20 22 20h178q20 0 17 -20l-168 -947q-3 -20 -21 -20h-178q-21 0 -18 20zM924 1202l32 170q4 21 23 21h178q9 0 14 -6t3 -15l-31 -170q-3 -20 -23 -20h-180q-19 0 -16 20z " />
<glyph unicode="&#xfb02;" horiz-adv-x="1216" d="M102 20l140 787q3 12 -9 12h-67q-18 0 -14 21l22 127q3 20 21 20h67q11 0 14 12l13 68q30 170 119.5 248t246.5 78h88q9 0 14 -6t3 -15l-29 -153q-3 -21 -20 -21h-60q-75 0 -104.5 -25.5t-42.5 -101.5l-12 -72q-3 -12 8 -12h170q21 0 18 -20l-22 -127q-4 -21 -25 -21 h-168q-11 0 -14 -12l-140 -787q-3 -20 -20 -20h-178q-9 0 -14.5 5.5t-4.5 14.5zM760 264l198 1108q4 21 21 21h178q9 0 14.5 -6t4.5 -15l-203 -1104q-8 -46 8.5 -66t62.5 -20h39q20 0 17 -20l-25 -154q-3 -20 -24 -20h-84q-136 0 -184 67t-23 209z" />
<glyph unicode="&#xfb03;" horiz-adv-x="1794" d="M102 20l140 787q3 12 -9 12h-67q-18 0 -14 21l22 127q3 20 21 20h67q11 0 14 12l13 68q30 170 119.5 248t246.5 78h88q9 0 14 -6t3 -15l-29 -153q-3 -21 -20 -21h-60q-75 0 -104.5 -25.5t-42.5 -101.5l-12 -72q-3 -12 8 -12h170q21 0 18 -20l-22 -127q-4 -21 -25 -21 h-168q-11 0 -14 -12l-140 -787q-3 -20 -20 -20h-178q-9 0 -14.5 5.5t-4.5 14.5zM748 20l139 787q3 12 -8 12h-68q-17 0 -14 21l22 127q3 20 21 20h67q12 0 15 12l12 68q30 170 119.5 248t246.5 78h89q19 0 16 -21l-29 -153q-4 -21 -20 -21h-60q-75 0 -104.5 -25.5 t-42.5 -101.5l-12 -72q-3 -12 8 -12h170q21 0 18 -20l-22 -127q-3 -21 -25 -21h-168q-11 0 -14 -12l-139 -787q-3 -20 -21 -20h-178q-21 0 -18 20zM1362 20l168 947q3 20 22 20h179q19 0 16 -20l-168 -947q-3 -20 -20 -20h-179q-21 0 -18 20zM1569 1202l33 170q4 21 22 21 h178q20 0 17 -21l-31 -170q-3 -20 -23 -20h-180q-19 0 -16 20z" />
<glyph unicode="&#xfb04;" horiz-adv-x="1861" d="M102 20l140 787q3 12 -9 12h-67q-18 0 -14 21l22 127q3 20 21 20h67q11 0 14 12l13 68q30 170 119.5 248t246.5 78h88q9 0 14 -6t3 -15l-29 -153q-3 -21 -20 -21h-60q-75 0 -104.5 -25.5t-42.5 -101.5l-12 -72q-3 -12 8 -12h170q21 0 18 -20l-22 -127q-4 -21 -25 -21 h-168q-11 0 -14 -12l-140 -787q-3 -20 -20 -20h-178q-9 0 -14.5 5.5t-4.5 14.5zM748 20l139 787q3 12 -8 12h-68q-17 0 -14 21l22 127q3 20 21 20h67q12 0 15 12l12 68q30 170 119.5 248t246.5 78h89q19 0 16 -21l-29 -153q-4 -21 -20 -21h-60q-75 0 -104.5 -25.5 t-42.5 -101.5l-12 -72q-3 -12 8 -12h170q21 0 18 -20l-22 -127q-3 -21 -25 -21h-168q-11 0 -14 -12l-139 -787q-3 -20 -21 -20h-178q-21 0 -18 20zM1405 264l199 1108q4 21 20 21h178q9 0 14.5 -6t4.5 -15l-203 -1104q-7 -46 9.5 -66t62.5 -20h39q19 0 16 -20l-25 -154 q-3 -20 -24 -20h-84q-136 0 -184 67t-23 209z" />
<glyph horiz-adv-x="0" />
<glyph horiz-adv-x="682" />
<glyph unicode=" "  horiz-adv-x="466" />
<glyph unicode="&#x09;" horiz-adv-x="466" />
<glyph unicode="&#xa0;" horiz-adv-x="466" />
<glyph unicode="!" horiz-adv-x="595" d="M117 20l35 201q4 21 22 21h191q9 0 14 -6t4 -15l-35 -201q-3 -20 -22 -20h-191q-21 0 -18 20zM219 408l127 964q3 21 21 21h200q9 0 14 -6t3 -15l-211 -964q-3 -21 -23 -21h-117q-17 0 -14 21z" />
<glyph unicode="&#x22;" horiz-adv-x="679" d="M227 1028l62 344q3 21 22 21h119q20 0 16 -21l-61 -344q-3 -20 -23 -20h-118q-20 0 -17 20zM508 1028l59 344q3 21 23 21h119q19 0 16 -21l-59 -344q-3 -20 -23 -20h-119q-19 0 -16 20z" />
<glyph unicode="#" horiz-adv-x="1007" d="M45 453l21 110q4 21 22 21h154l77 250h-135q-19 0 -16 20l18 111q1 9 8 14.5t15 5.5h158l118 387q7 21 25 21h123q10 0 14.5 -6t1.5 -15l-119 -387h232l121 387q7 21 22 21h123q10 0 14.5 -6t1.5 -15l-118 -387h135q19 0 16 -20l-18 -111q-3 -20 -21 -20h-159l-78 -250 h139q9 0 14 -6t4 -15l-18 -110q-4 -21 -22 -21h-162l-127 -412q-7 -20 -25 -20h-123q-23 0 -16 20l127 412h-232l-127 -412q-7 -20 -24 -20h-125q-21 0 -14 20l127 412h-134q-9 0 -14 6t-4 15zM406 584h233l76 250h-232z" />
<glyph unicode="$" d="M66 133q-14 13 2 29l118 123q17 17 29 2q98 -102 238 -113l75 436h-2q-140 25 -219.5 115t-79.5 221q0 194 123.5 325.5t319.5 141.5l18 103q1 9 8 14.5t15 5.5h71q8 0 13 -5.5t2 -14.5l-19 -105q157 -19 273 -117q13 -13 0 -28l-103 -121q-15 -15 -28 -6q-88 64 -177 78 l-73 -416q149 -24 226 -110t77 -216q0 -212 -123 -343t-322 -150l-18 -105q-3 -20 -25 -20h-69q-20 0 -17 20l19 103q-205 13 -352 153zM442 977q0 -116 123 -156l70 396q-84 -15 -138.5 -81t-54.5 -159zM563 180q91 24 142 94.5t51 161.5q0 110 -123 152z" />
<glyph unicode="%" horiz-adv-x="1544" d="M209 877q0 52 23.5 185t48.5 185q79 162 266 162q93 0 156 -54t63 -147q0 -51 -24.5 -184.5t-49.5 -185.5q-79 -162 -266 -162q-92 0 -154.5 54t-62.5 147zM217.5 -16.5q-2.5 6.5 3.5 14.5l1024 1397q14 20 33 20h127q9 0 11 -6.5t-3 -13.5l-1026 -1397q-15 -21 -35 -21 h-123q-9 0 -11.5 6.5zM369 893q0 -35 21 -55.5t56 -20.5q70 0 97 62q17 31 40 154t23 159q0 35 -21.5 55.5t-56.5 20.5q-68 0 -98 -62q-16 -31 -38.5 -155t-22.5 -158zM868 182q0 52 23.5 185.5t48.5 185.5q79 162 266 162q93 0 156 -54t63 -147q0 -52 -24 -185.5 t-49 -185.5q-79 -161 -267 -161q-92 0 -154.5 53.5t-62.5 146.5zM1026 199q0 -35 21.5 -55.5t56.5 -20.5q69 0 96 61q17 31 40.5 155t23.5 159t-21 55t-57 20q-69 0 -99 -61q-16 -31 -38.5 -155t-22.5 -158z" />
<glyph unicode="&#x26;" horiz-adv-x="1259" d="M86 285q0 59 13.5 110t48.5 112t104.5 128.5t173.5 142.5q-52 97 -76 159t-24 120q0 149 117 253.5t274 104.5q125 0 199.5 -73t74.5 -183q0 -109 -66.5 -205t-240.5 -219l156 -276l170 174q14 14 28 2l97 -98q13 -13 -2 -29l-203 -211l31 -53q25 -45 73 -45h43 q9 0 14 -6t3 -15l-29 -158q-3 -20 -23 -20h-61q-67 0 -104.5 22t-73.5 87l-23 41q-101 -92 -187 -132.5t-187 -40.5q-148 0 -234 86.5t-86 221.5zM295 311q0 -60 40 -99.5t109 -39.5q57 0 110.5 29.5t135.5 105.5l-174 311q-129 -92 -175 -160t-46 -147zM532 1077 q0 -35 13.5 -73t50.5 -107q115 83 153.5 132.5t38.5 98.5q0 48 -27.5 77.5t-74.5 29.5q-64 0 -109 -45.5t-45 -112.5z" />
<glyph unicode="'" horiz-adv-x="401" d="M227 1028l62 344q3 21 22 21h119q8 0 12.5 -6t3.5 -15l-61 -344q-3 -20 -23 -20h-118q-20 0 -17 20z" />
<glyph unicode="(" horiz-adv-x="581" d="M127 418q0 285 109.5 565t308.5 512q15 21 35 21h96q9 0 11.5 -6t-3.5 -15q-168 -263 -261 -560.5t-93 -604.5q0 -272 63 -482q3 -9 -1 -14.5t-13 -5.5h-96q-20 0 -29 20q-127 251 -127 570z" />
<glyph unicode=")" horiz-adv-x="581" d="M-20 -152q168 264 262 562t94 606q0 260 -66 479q-3 9 1.5 15t13.5 6h98q20 0 29 -21q127 -257 127 -569q0 -284 -109.5 -564t-308.5 -514q-14 -20 -35 -20h-98q-21 0 -8 20z" />
<glyph unicode="*" horiz-adv-x="677" d="M162 991q-7 18 12 27l160 84l-127 86q-18 11 -4 29l47 65q14 18 31 4l127 -88l28 174q4 21 23 21h80q19 0 16 -21l-31 -168l154 86q22 12 29 -6l28 -74q7 -17 -12 -26l-164 -86l131 -84q18 -11 4 -29l-51 -67q-5 -8 -13 -9.5t-16 4.5l-127 86l-28 -172q-3 -20 -23 -20 h-82q-19 0 -16 20l33 168l-154 -84q-21 -12 -29 7z" />
<glyph unicode="+" d="M129 492v147q0 20 21 20h315q12 0 12 13v317q0 9 6 15t15 6h153q9 0 15 -6t6 -15v-317q0 -13 12 -13h313q21 0 21 -20v-147q0 -9 -6 -15t-15 -6h-313q-12 0 -12 -12v-318q0 -20 -21 -20h-153q-21 0 -21 20v318q0 12 -12 12h-315q-9 0 -15 6t-6 15z" />
<glyph unicode="," horiz-adv-x="493" d="M33 -203l73 424q4 21 23 21h178q9 0 14.5 -6t4.5 -15l-37 -215q-5 -27 -21 -43l-186 -174q-17 -14 -31 -14q-21 0 -18 22z" />
<glyph unicode="-" horiz-adv-x="747" d="M96 469l27 149q2 9 8.5 15t15.5 6h539q20 0 16 -21l-26 -149q-3 -20 -25 -20h-538q-20 0 -17 20z" />
<glyph unicode="." horiz-adv-x="493" d="M59 20l35 201q4 21 23 21h190q9 0 14.5 -6t4.5 -15l-33 -201q-3 -20 -23 -20h-192q-9 0 -14.5 5.5t-4.5 14.5z" />
<glyph unicode="/" horiz-adv-x="808" d="M18 -2l684 1397q9 20 27 20h150q8 0 11 -5.5t-1 -14.5l-682 -1397q-9 -21 -27 -21h-149q-9 0 -13 6t0 15z" />
<glyph unicode="0" d="M127 297q0 107 59 437t103 421q126 260 416 260q159 0 250.5 -83.5t91.5 -235.5q0 -107 -59 -437t-103 -421q-126 -261 -416 -261q-157 0 -249.5 84t-92.5 236zM348 322q0 -66 37.5 -108t108.5 -42q63 0 110.5 30.5t73.5 86.5q35 66 92 378t57 404q0 66 -38 108t-107 42 q-127 0 -186 -115q-34 -68 -91 -380.5t-57 -403.5z" />
<glyph unicode="1" d="M326 993l34 195q3 20 19 29l250 163q19 13 35 13h165q9 0 14.5 -6t4.5 -15l-240 -1352q-3 -20 -22 -20h-176q-9 0 -14.5 5.5t-4.5 14.5l197 1113h-4l-238 -154q-9 -6 -16 -2t-4 16z" />
<glyph unicode="2" d="M74 20l24 144q3 15 19 31l579 614q67 72 98 133t31 131q0 68 -38.5 108t-108.5 40q-80 0 -136 -48t-83 -133q-6 -19 -25 -16l-162 35q-16 3 -10 22q38 139 150 236.5t286 97.5q159 0 256 -87.5t97 -223.5q0 -112 -46 -206.5t-145 -197.5l-479 -501v-4h491q9 0 14.5 -6 t4.5 -15l-27 -154q-3 -20 -22 -20h-750q-21 0 -18 20z" />
<glyph unicode="3" d="M96 274q0 20 23 27l168 39q17 7 20 -14q10 -69 53 -111.5t125 -42.5q103 0 172.5 78t69.5 192q0 85 -48 133t-134 48h-58q-19 0 -16 20l27 152q3 20 22 20h55q103 0 170.5 75.5t67.5 180.5q0 69 -39 109.5t-110 40.5q-141 0 -211 -150q-6 -18 -25 -14l-160 39 q-17 3 -10 24q46 128 165.5 211.5t278.5 83.5q160 0 247 -81t87 -218q0 -117 -55.5 -218t-157.5 -157v-4q53 -26 91 -93t38 -163q0 -225 -136 -364.5t-351 -139.5q-161 0 -262 80t-107 217z" />
<glyph unicode="4" d="M57 242l27 145q3 14 14 31l590 958q11 17 31 17h182q9 0 12 -5.5t-2 -13.5l-579 -956v-4h295q13 0 16 12l64 352q3 21 22 21h176q9 0 14.5 -6t4.5 -15l-66 -352q-3 -12 10 -12h99q9 0 14 -6t4 -15l-27 -151q-4 -21 -22 -21h-100q-12 0 -15 -12l-33 -189q-3 -20 -22 -20 h-176q-9 0 -14.5 5.5t-4.5 14.5l33 189q3 12 -10 12h-520q-20 0 -17 21z" />
<glyph unicode="5" d="M129 268q0 20 16 23l170 39q8 2 14 -3t7 -14q6 -64 47 -102.5t113 -38.5q62 0 112.5 30.5t79.5 88.5q23 49 40 138t17 144q0 156 -151 156q-63 0 -112.5 -30.5t-69.5 -73.5q-9 -21 -29 -21h-162q-17 0 -14 21l133 747q4 21 20 21h709q9 0 14 -6t4 -15l-26 -153 q-3 -21 -23 -21h-520q-11 0 -14 -12l-62 -332h7q32 27 90 47.5t127 20.5q144 0 221.5 -75.5t77.5 -223.5q0 -84 -24 -212t-60 -202q-112 -232 -406 -232q-156 0 -252 81t-94 210z" />
<glyph unicode="6" d="M102 313q0 204 148 414l463 653q10 13 26 13h187q10 0 13 -6t-3 -15l-393 -563l4 -2q33 20 108 20q138 0 227 -86t89 -233q0 -228 -141.5 -379.5t-364.5 -151.5q-162 0 -262.5 89.5t-100.5 246.5zM322 348q0 -80 46.5 -128t125.5 -48q109 0 182.5 83.5t73.5 203.5 q0 80 -46.5 128t-125.5 48q-111 0 -183.5 -84t-72.5 -203z" />
<glyph unicode="7" d="M190.5 6q-3.5 6 2.5 17l649 1171v4h-340q-12 0 -15 -12l-30 -162q-3 -20 -23 -20h-166q-17 0 -14 20l59 348q3 21 23 21h747q10 0 15.5 -6t3.5 -15l-27 -155q-3 -15 -10 -29l-651 -1170q-10 -18 -33 -18h-178q-9 0 -12.5 6z" />
<glyph unicode="8" d="M94 311q0 127 63 241t175 177l2 4q-41 31 -67.5 88.5t-26.5 128.5q0 68 18.5 134t57.5 126t93.5 105.5t131.5 72.5t166 27q162 0 253 -90.5t91 -228.5q0 -107 -52 -204t-145 -159l-2 -4q54 -39 87.5 -105t33.5 -151q0 -132 -62 -245t-178.5 -182t-263.5 -69 q-171 0 -273 91.5t-102 242.5zM315 350q0 -81 47.5 -129.5t131.5 -48.5q109 0 183.5 82t74.5 203q0 80 -47 129t-130 49q-110 0 -185 -82.5t-75 -202.5zM457 981q0 -67 39.5 -110.5t109.5 -43.5q95 0 160 71t65 171q0 67 -39.5 109.5t-109.5 42.5q-95 0 -160 -70t-65 -170z " />
<glyph unicode="9" d="M201 903q0 102 35.5 194.5t99.5 163.5t161 112.5t212 41.5q163 0 262.5 -89.5t99.5 -246.5q0 -201 -151 -411l-459 -656q-9 -12 -27 -12h-184q-10 0 -13.5 6t1.5 14l389 564l-4 2q-29 -19 -105 -19q-138 0 -227.5 94t-89.5 242zM426 938q0 -83 45.5 -131.5t126.5 -48.5 q112 0 184 84.5t72 197.5q0 83 -45.5 132t-126.5 49q-113 0 -184.5 -84t-71.5 -199z" />
<glyph unicode=":" horiz-adv-x="493" d="M59 20l35 201q4 21 23 21h190q9 0 14.5 -6t4.5 -15l-33 -201q-3 -20 -23 -20h-192q-9 0 -14.5 5.5t-4.5 14.5zM193 764l32 201q3 20 23 20h192q20 0 17 -20l-33 -201q-4 -21 -23 -21h-190q-9 0 -14 6t-4 15z" />
<glyph unicode=";" horiz-adv-x="493" d="M27 -203l73 424q4 21 23 21h178q9 0 14 -6t4 -15l-34 -215q-5 -25 -23 -43l-186 -174q-17 -14 -31 -14q-21 0 -18 22zM193 764l32 201q3 20 23 20h192q20 0 17 -20l-33 -201q-4 -21 -23 -21h-190q-9 0 -14 6t-4 15z" />
<glyph unicode="&#x3c;" d="M98 502v127q0 17 21 28l848 349q20 7 20 -13v-170q0 -19 -20 -26l-592 -230v-4l592 -229q20 -8 20 -27v-170q0 -19 -20 -12l-848 348q-21 11 -21 29z" />
<glyph unicode="=" d="M100 287v149q0 9 6 15t15 6h848q20 0 20 -21v-149q0 -21 -20 -21h-848q-9 0 -15 6t-6 15zM100 694v150q0 20 21 20h848q20 0 20 -20v-150q0 -20 -20 -20h-848q-21 0 -21 20z" />
<glyph unicode="&#x3e;" d="M115 137v170q0 18 20 27l590 229v4l-590 230q-20 9 -20 26v170q0 20 20 13l848 -349q21 -11 21 -28v-127q0 -18 -21 -29l-848 -348q-20 -7 -20 12z" />
<glyph unicode="?" horiz-adv-x="911" d="M184 1085q47 153 166 241.5t279 88.5q145 0 231 -79t86 -208q0 -78 -34 -152.5t-107 -160.5l-182 -213q-29 -32 -42 -59.5t-24 -75.5l-14 -61q-1 -9 -8 -15t-15 -6h-176q-20 0 -16 21l16 86q10 58 29.5 97.5t56.5 80.5l182 213q62 70 86.5 115.5t24.5 97.5q0 57 -33.5 91 t-95.5 34q-68 0 -123 -47t-84 -123q-7 -20 -25 -17l-167 27q-18 3 -11 24zM254 20l35 201q3 21 22 21h191q9 0 14 -6t4 -15l-33 -201q-3 -20 -22 -20h-193q-21 0 -18 20z" />
<glyph unicode="@" horiz-adv-x="1759" d="M96 418q0 276 113 488t322 329t483 117q201 0 355.5 -81.5t238.5 -227.5t84 -334q0 -279 -111 -437.5t-309 -158.5q-171 0 -215 133h-2q-88 -133 -271 -133q-111 0 -185.5 73t-74.5 203q0 88 22 197t58 182q47 98 126 148.5t181 50.5q77 0 127.5 -30t71.5 -75h4l12 64 q1 8 6.5 14t10.5 6h143q15 0 12 -20l-88 -504q-13 -77 13.5 -112.5t76.5 -35.5q95 0 155.5 112.5t60.5 297.5q0 234 -143.5 371t-385.5 137q-212 0 -375 -99.5t-250.5 -274t-87.5 -394.5q0 -239 141.5 -378.5t383.5 -139.5q129 0 220.5 22t197.5 70q19 9 24 -10l41 -115 q7 -17 -14 -27q-112 -58 -227.5 -82t-268.5 -24q-303 0 -489.5 188t-186.5 490zM700 422q0 -68 36 -107.5t104 -40.5q117 0 174 117q26 52 41.5 131t15.5 137q0 68 -35 107.5t-102 40.5q-119 0 -176 -119q-23 -48 -40.5 -131.5t-17.5 -134.5z" />
<glyph unicode="A" horiz-adv-x="1218" d="M-35 20l701 1352q10 21 30 21h176q20 0 23 -21l213 -1352q3 -20 -14 -20h-185q-19 0 -22 20l-41 279h-502l-141 -279q-9 -20 -27 -20h-201q-20 0 -10 20zM446 502h371l-80 563h-6z" />
<glyph unicode="B" horiz-adv-x="1193" d="M76 20l239 1352q3 21 23 21h493q180 0 270.5 -80t90.5 -223q0 -251 -221 -363v-4q56 -24 95.5 -87.5t39.5 -154.5q0 -225 -138 -353t-395 -128h-479q-21 0 -18 20zM338 215q-3 -12 8 -12h279q109 0 180.5 69t71.5 177q0 72 -47 114.5t-134 42.5h-276q-11 0 -14 -12z M444 819q-3 -12 11 -12h266q102 0 168.5 66.5t66.5 168.5q0 69 -43.5 108.5t-124.5 39.5h-266q-11 0 -14 -12z" />
<glyph unicode="C" horiz-adv-x="1128" d="M115 395q0 102 48 353t97 348q153 319 510 319q154 0 255.5 -80t135.5 -221q7 -17 -14 -24l-162 -72q-9 -4 -15.5 -1t-8.5 11q-49 182 -218 182q-184 0 -278 -192q-38 -81 -77.5 -299.5t-39.5 -304.5q0 -107 56.5 -168.5t162.5 -61.5q85 0 156.5 50t120.5 131 q11 18 28 10l150 -78q15 -7 4 -25q-95 -154 -214.5 -224.5t-281.5 -70.5q-189 0 -302 108.5t-113 309.5z" />
<glyph unicode="D" horiz-adv-x="1228" d="M76 20l239 1352q3 21 23 21h475q194 0 288.5 -99.5t94.5 -285.5q0 -144 -43 -382.5t-102 -355.5q-72 -149 -187.5 -209.5t-294.5 -60.5h-475q-21 0 -18 20zM338 217q-3 -12 10 -12h205q112 0 187 43t122 137q36 74 74.5 277t38.5 301q0 118 -63 171.5t-187 53.5h-205 q-9 0 -12 -12z" />
<glyph unicode="E" horiz-adv-x="1116" d="M76 20l239 1352q3 21 23 21h831q9 0 14.5 -6t4.5 -15l-29 -164q-3 -20 -24 -20h-613q-11 0 -14 -12l-64 -359q-3 -12 11 -12h518q19 0 16 -21l-31 -163q-4 -21 -24 -21h-516q-12 0 -15 -12l-65 -371q-3 -12 10 -12h613q19 0 16 -21l-29 -164q-3 -20 -22 -20h-832 q-21 0 -18 20z" />
<glyph unicode="F" horiz-adv-x="1099" d="M76 20l239 1352q3 21 23 21h831q9 0 14.5 -6t4.5 -15l-29 -164q-3 -20 -24 -20h-615q-9 0 -12 -12l-68 -373q0 -12 11 -12h518q9 0 14 -6t4 -15l-31 -164q-3 -20 -24 -20h-516q-12 0 -15 -13l-98 -553q-3 -20 -20 -20h-189q-21 0 -18 20z" />
<glyph unicode="G" horiz-adv-x="1228" d="M115 395q0 102 48 355t97 350q78 163 210.5 239t322.5 76q160 0 268.5 -84.5t132.5 -208.5q3 -17 -12 -26l-164 -72q-19 -6 -23 10q-32 89 -88.5 132.5t-150.5 43.5q-98 0 -172.5 -51t-116.5 -141q-39 -81 -79 -299t-40 -305q0 -106 61 -168t166 -62q197 0 281 178 q35 71 57 191q0 12 -10 12h-219q-8 0 -12 6t-2 15l26 153q4 21 23 21h442q8 0 12 -6t3 -15l-21 -116q-14 -90 -39 -185t-49 -145q-81 -164 -210.5 -240t-317.5 -76q-190 0 -307 109t-117 309z" />
<glyph unicode="H" horiz-adv-x="1290" d="M76 20l239 1352q3 21 23 21h188q20 0 17 -21l-99 -555q-3 -12 11 -12h516q11 0 14 12l98 555q3 21 21 21h186q9 0 14.5 -6t4.5 -15l-240 -1352q-3 -20 -22 -20h-187q-19 0 -16 20l98 568q3 12 -10 12h-514q-12 0 -15 -12l-100 -568q-3 -20 -20 -20h-189q-21 0 -18 20z " />
<glyph unicode="I" horiz-adv-x="524" d="M76 20l239 1352q3 21 23 21h188q20 0 17 -21l-240 -1352q-3 -20 -20 -20h-189q-21 0 -18 20z" />
<glyph unicode="J" horiz-adv-x="993" d="M10 150q-7 17 10 28l148 101q15 9 29 -7q30 -37 75.5 -61.5t96.5 -24.5q110 0 174.5 68.5t89.5 208.5l162 909q3 21 22 21h189q8 0 12.5 -6t3.5 -15l-162 -909q-25 -136 -67.5 -230t-106.5 -150.5t-145.5 -81t-190.5 -24.5q-107 0 -205 52t-135 121z" />
<glyph unicode="K" horiz-adv-x="1249" d="M76 20l239 1352q3 21 23 21h188q20 0 17 -21l-113 -633l612 637q20 17 37 17h228q8 0 10.5 -9t-4.5 -18l-522 -530l301 -811q3 -11 -2 -18t-17 -7h-186q-22 0 -27 16l-235 652l-256 -269l-66 -379q-3 -20 -20 -20h-189q-21 0 -18 20z" />
<glyph unicode="L" horiz-adv-x="1069" d="M76 20l239 1352q3 21 23 21h188q20 0 17 -21l-205 -1155q-3 -12 10 -12h617q17 0 14 -21l-29 -164q-3 -20 -20 -20h-836q-21 0 -18 20z" />
<glyph unicode="M" horiz-adv-x="1490" d="M76 20l239 1352q3 21 23 21h160q27 0 30 -21l217 -874h7l522 874q12 21 33 21h184q9 0 14 -6t4 -15l-239 -1352q-3 -20 -23 -20h-168q-19 0 -16 20l156 877h-9l-411 -678q-14 -26 -41 -26h-109q-24 0 -33 26l-170 678h-6l-157 -877q-3 -20 -21 -20h-168q-21 0 -18 20z " />
<glyph unicode="N" horiz-adv-x="1290" d="M76 20l239 1352q3 21 23 21h178q22 0 31 -21l371 -981h8l176 981q4 21 22 21h168q20 0 17 -21l-238 -1352q-3 -20 -22 -20h-177q-21 0 -30 20l-377 979h-8l-174 -979q-3 -20 -21 -20h-168q-21 0 -18 20z" />
<glyph unicode="O" horiz-adv-x="1228" d="M115 395q0 102 48 355t97 350q78 163 208 239t318 76q191 0 305.5 -108.5t114.5 -309.5q0 -101 -47.5 -354t-95.5 -350q-81 -164 -210.5 -240t-317.5 -76q-190 0 -305 109t-115 309zM348 414q0 -107 59 -168.5t164 -61.5q97 0 170 50.5t115 140.5q39 81 79 299t40 305 q0 106 -59.5 168.5t-163.5 62.5q-97 0 -169.5 -51t-115.5 -141q-39 -81 -79 -299t-40 -305z" />
<glyph unicode="P" horiz-adv-x="1175" d="M78 20l239 1352q3 21 23 21h498q174 0 273 -92t99 -248q0 -167 -68.5 -285.5t-184 -175.5t-267.5 -57h-280q-15 0 -15 -13l-90 -502q-3 -20 -22 -20h-187q-21 0 -18 20zM434 754q-3 -13 10 -13h265q119 0 195.5 74.5t76.5 198.5q0 79 -51 126.5t-142 47.5h-264 q-11 0 -14 -12z" />
<glyph unicode="Q" horiz-adv-x="1234" d="M115 395q0 102 48 355t97 350q78 163 208 239t318 76q191 0 305.5 -108.5t114.5 -309.5q0 -101 -47.5 -354t-95.5 -350q-42 -85 -92 -141l84 -136q9 -15 -11 -28l-129 -88q-19 -11 -28 4l-80 125q-116 -52 -272 -52q-190 0 -305 109t-115 309zM348 414q0 -107 59 -168.5 t164 -61.5q65 0 123 25l-100 162q-7 17 10 28l129 88q21 14 33 -4l80 -129l10 21q39 81 79 299t40 305q0 106 -59.5 168.5t-163.5 62.5q-97 0 -169.5 -51t-115.5 -141q-39 -81 -79 -299t-40 -305z" />
<glyph unicode="R" horiz-adv-x="1220" d="M76 20l239 1352q3 21 23 21h510q167 0 268 -90.5t101 -241.5q0 -167 -94.5 -292t-248.5 -173l173 -569q4 -10 -1 -18.5t-14 -8.5h-184q-21 0 -27 20l-162 549h-245q-15 0 -15 -12l-96 -537q-3 -20 -20 -20h-189q-21 0 -18 20zM438 786q-3 -12 11 -12h284 q109 2 180.5 69.5t71.5 184.5q0 73 -48 116.5t-130 43.5h-285q-11 0 -14 -12z" />
<glyph unicode="S" horiz-adv-x="1157" d="M35 160q-12 16 2 30l137 132q17 17 29 2q60 -60 148.5 -100t191.5 -40q133 0 214 73.5t81 184.5q0 65 -45 101t-160 53l-68 10q-172 27 -259 110t-87 230q0 141 70.5 249t188.5 164t263 56q120 0 230.5 -39t179.5 -102q15 -12 0 -29l-111 -131q-13 -16 -26 -6 q-142 102 -295 102q-112 0 -185 -69t-73 -168q0 -64 47 -104t158 -54l67 -10q168 -25 257 -106t89 -216q0 -233 -160 -369.5t-413 -136.5q-143 0 -273.5 52.5t-197.5 130.5z" />
<glyph unicode="T" horiz-adv-x="1077" d="M178 1208l31 164q3 21 22 21h953q9 0 14 -6t4 -15l-28 -164q-3 -20 -25 -20h-352q-10 0 -13 -12l-204 -1156q-3 -20 -23 -20h-186q-8 0 -13 5.5t-4 14.5l203 1156q3 12 -10 12h-352q-20 0 -17 20z" />
<glyph unicode="U" horiz-adv-x="1263" d="M156 500l153 872q1 9 7 15t14 6h186q9 0 14.5 -6t4.5 -15l-156 -880q-8 -44 -8 -81q-1 -89 43 -147q62 -80 186 -80q127 0 201.5 67.5t105.5 240.5l156 880q3 21 22 21h187q9 0 14 -6t4 -15l-160 -903q-24 -137 -72 -233t-119 -152.5t-157.5 -81.5t-197.5 -25 q-230 0 -350 141q-88 104 -89 263q0 56 11 119z" />
<glyph unicode="V" horiz-adv-x="1120" d="M197 1372q-1 9 4 15t14 6h180q24 0 27 -21l123 -1010h6l469 1010q12 21 31 21h194q9 0 14 -6t1 -15l-668 -1352q-10 -20 -25 -20h-164q-17 0 -20 20z" />
<glyph unicode="W" horiz-adv-x="1638" d="M199 1372q0 21 18 21h178q9 0 15 -6t6 -15l43 -962h4l424 962q11 21 26 21h136q17 0 20 -21l88 -962h4l381 962q6 21 25 21h190q22 0 15 -21l-570 -1352q-7 -20 -24 -20h-150q-17 0 -20 20l-84 975h-4l-435 -975q-10 -20 -26 -20h-150q-17 0 -20 20z" />
<glyph unicode="X" horiz-adv-x="1130" d="M-38 8q-2 8 5 19l522 696l-258 643q-4 10 1 18.5t16 8.5h203q19 0 28 -21l166 -432h4l322 432q15 21 35 21h213q10 0 12 -8.5t-4 -18.5l-484 -643l277 -696q4 -10 -0.5 -18.5t-15.5 -8.5h-197q-23 0 -29 20l-184 488h-4l-365 -488q-14 -20 -30 -20h-222q-9 0 -11 8z" />
<glyph unicode="Y" horiz-adv-x="1067" d="M197 1372q-2 8 3 14.5t15 6.5h186q21 0 27 -21l168 -555h6l365 555q12 21 30 21h195q11 0 15 -6.5t-1 -14.5l-534 -803l-99 -549q-3 -20 -22 -20h-184q-9 0 -14.5 5.5t-4.5 14.5l98 549z" />
<glyph unicode="Z" horiz-adv-x="1052" d="M14 20l31 166q2 11 14 27l768 971v4h-563q-19 0 -16 20l31 164q3 21 22 21h815q9 0 14.5 -6t4.5 -15l-29 -155q-3 -17 -14 -31l-777 -977v-4h592q9 0 14 -6t3 -15l-29 -164q-3 -20 -23 -20h-839q-9 0 -14.5 5.5t-4.5 14.5z" />
<glyph unicode="[" horiz-adv-x="557" d="M27 -152l290 1647q1 9 8.5 15t16.5 6h326q8 0 12 -6t2 -15l-23 -127q-3 -20 -20 -20h-137q-15 0 -15 -13l-233 -1327q-3 -12 10 -12h135q8 0 12 -6t3 -15l-23 -127q-3 -20 -20 -20h-326q-21 0 -18 20z" />
<glyph unicode="\" horiz-adv-x="808" d="M248 1395q0 20 16 20h152q19 0 22 -20l187 -1397q3 -21 -15 -21h-151q-20 0 -23 21z" />
<glyph unicode="]" horiz-adv-x="557" d="M-41 -152l23 127q4 21 24 21h135q10 0 13 12l235 1327q3 13 -8 13h-135q-9 0 -14.5 5.5t-4.5 14.5l23 127q4 21 24 21h326q20 0 16 -21l-290 -1647q-3 -20 -23 -20h-326q-21 0 -18 20z" />
<glyph unicode="^" d="M137 548.5q-4 5.5 0 14.5l355 809q10 21 28 21h119q19 0 29 -21l356 -809q4 -9 0.5 -14.5t-12.5 -5.5h-160q-20 0 -29 20l-241 565h-4l-242 -565q-9 -20 -29 -20h-157q-9 0 -13 5.5z" />
<glyph unicode="_" horiz-adv-x="978" d="M-106 -276h966l23 131h-967z" />
<glyph unicode="`" horiz-adv-x="843" d="M412 1413q-4 7 0.5 14t13.5 7h170q22 0 31 -21l102 -256q3 -9 -2 -14.5t-14 -5.5h-125q-21 0 -35 20z" />
<glyph unicode="a" horiz-adv-x="1028" d="M70 233q0 172 114.5 263.5t323.5 91.5h192q14 0 17 12l8 55q6 29 6 53q-1 50 -27 76q-38 38 -157 39q-137 0 -232 -69q-19 -13 -26 4l-49 129q-6 15 8 26q65 44 158.5 70.5t193.5 26.5q210 0 288 -80q55 -57 56 -165q0 -44 -10 -97l-115 -648q-3 -20 -22 -20h-162 q-8 0 -13 5.5t-4 14.5l13 76h-2q-93 -119 -289 -119q-118 0 -194 69t-76 187zM283 262q0 -52 36 -80t107 -28q103 0 166 44.5t76 129.5l14 84q3 12 -10 12h-158q-122 0 -176.5 -40.5t-54.5 -121.5z" />
<glyph unicode="b" horiz-adv-x="1069" d="M72 20l239 1352q3 21 23 21h178q20 0 16 -21l-86 -483h2q102 121 277 121q137 0 213 -87.5t76 -238.5q0 -106 -28 -248.5t-73 -232.5q-59 -118 -148.5 -172t-215.5 -54q-95 0 -154.5 34.5t-85.5 88.5h-2l-14 -80q-3 -20 -21 -20h-178q-21 0 -18 20zM356 348 q0 -178 158 -178q139 0 205 135q27 53 48 159.5t21 174.5q0 89 -37 133.5t-120 44.5q-141 0 -205 -135q-26 -51 -48 -159t-22 -175z" />
<glyph unicode="c" horiz-adv-x="917" d="M86 322q0 85 23 212.5t67 219.5q123 256 428 256q208 0 299 -166q9 -18 -8 -29l-125 -94q-20 -13 -31 6q-28 47 -64.5 68.5t-90.5 21.5q-67 0 -120 -35t-85 -102q-31 -61 -51.5 -163t-20.5 -161q0 -186 160 -186q99 0 197 94q14 14 26 2l105 -104q12 -12 -2 -29 q-59 -73 -153 -114.5t-206 -41.5q-162 0 -255 92.5t-93 252.5z" />
<glyph unicode="d" horiz-adv-x="1071" d="M84 303q0 106 27.5 248.5t72.5 232.5q110 226 363 226q183 0 241 -123h3l83 485q4 21 21 21h178q9 0 14.5 -6t4.5 -15l-238 -1352q-3 -20 -23 -20h-178q-19 0 -16 20l12 78h-2q-99 -121 -276 -121q-135 0 -211 87.5t-76 238.5zM305 346q0 -87 37.5 -131.5t120.5 -44.5 q137 0 205 133q25 52 46 159.5t21 176.5q0 88 -36.5 133t-118.5 45q-139 0 -205 -135q-27 -54 -48.5 -160.5t-21.5 -175.5z" />
<glyph unicode="e" horiz-adv-x="1009" d="M86 336q0 96 21.5 213t58.5 194q130 267 436 267q153 0 249.5 -91t96.5 -255q0 -82 -26 -220q-3 -20 -25 -20h-586q-11 0 -14 -12q-4 -14 -4 -41q0 -107 47.5 -154t142.5 -47q67 0 133 29t113 73q17 14 31 0l88 -96q14 -17 -2 -33q-76 -74 -179.5 -120t-222.5 -46 q-176 0 -267 94t-91 265zM332 600q-3 -12 8 -12h377q13 0 16 12q6 30 6 62q0 163 -166 163q-70 0 -125.5 -33.5t-85.5 -97.5q-22 -49 -30 -94z" />
<glyph unicode="f" horiz-adv-x="645" d="M102 20l140 787q3 12 -9 12h-67q-18 0 -14 21l22 127q3 20 21 20h67q11 0 14 12l13 68q30 170 119.5 248t246.5 78h88q9 0 14 -6t3 -15l-29 -153q-3 -21 -20 -21h-60q-75 0 -104.5 -25.5t-42.5 -101.5l-12 -72q-3 -12 8 -12h170q21 0 18 -20l-22 -127q-4 -21 -25 -21 h-168q-11 0 -14 -12l-140 -787q-3 -20 -20 -20h-178q-9 0 -14.5 5.5t-4.5 14.5z" />
<glyph unicode="g" horiz-adv-x="1048" d="M23 -236q-15 19 2 33l120 103q19 16 35 0q87 -97 189 -97q215 0 256 242l18 98h-2q-85 -118 -264 -118q-141 0 -213 85t-72 232q0 86 24.5 216t63.5 212q56 117 149 178.5t214 61.5q180 0 229 -121h2l14 78q3 20 23 20h174q19 0 16 -20l-159 -910q-42 -238 -159.5 -343 t-334.5 -105q-111 0 -196 43.5t-129 111.5zM313 391q0 -176 156 -176q121 0 188 131q27 54 45.5 141.5t18.5 153.5q0 89 -36.5 132.5t-117.5 43.5q-123 0 -188 -129q-28 -55 -47 -142.5t-19 -154.5z" />
<glyph unicode="h" horiz-adv-x="1077" d="M72 20l239 1352q3 21 23 21h178q20 0 16 -21l-88 -481h2q103 119 273 119q153 0 223 -102q49 -72 50 -173q0 -43 -9 -92l-111 -623q-3 -20 -22 -20h-174q-8 0 -13 5.5t-4 14.5l101 572q6 34 6 64q0 60 -24 100q-36 60 -124 61q-84 0 -145 -61t-80 -160l-100 -576 q-3 -20 -21 -20h-178q-21 0 -18 20z" />
<glyph unicode="i" horiz-adv-x="503" d="M72 20l168 947q3 20 22 20h178q20 0 17 -20l-168 -947q-3 -20 -21 -20h-178q-21 0 -18 20zM279 1202l32 170q3 21 23 21h178q20 0 16 -21l-30 -170q-3 -20 -23 -20h-180q-19 0 -16 20z" />
<glyph unicode="j" horiz-adv-x="503" d="M-160 -348l25 153q1 9 7.5 15t14.5 6h41q60 0 89.5 26t41.5 93l181 1022q3 20 22 20h178q20 0 17 -20l-183 -1018q-32 -186 -110 -252t-256 -66h-53q-8 0 -13 6t-2 15zM279 1202l32 170q3 21 23 21h178q20 0 16 -21l-30 -170q-3 -20 -23 -20h-180q-19 0 -16 20z" />
<glyph unicode="k" horiz-adv-x="1030" d="M72 20l239 1352q3 21 23 21h178q20 0 16 -21l-139 -782l375 377q20 20 43 20h209q9 0 11.5 -7t-3.5 -13l-367 -361l246 -586q3 -8 -1 -14t-13 -6h-187q-19 0 -28 20l-176 443l-162 -174l-47 -269q-3 -20 -23 -20h-178q-19 0 -16 20z" />
<glyph unicode="l" horiz-adv-x="571" d="M115 264l198 1108q1 9 7 15t14 6h178q9 0 14 -6t4 -15l-202 -1104q-3 -15 -3 -27q-1 -25 11 -39q16 -20 63 -20h39q20 0 17 -20l-25 -154q-3 -20 -24 -20h-84q-136 0 -184 67q-32 44 -32 121q0 39 9 88z" />
<glyph unicode="m" horiz-adv-x="1658" d="M74 20l168 947q3 20 22 20h176q20 0 17 -20l-15 -76h2q44 53 114 86t159 33q175 0 239 -138h2q141 138 326 138q162 0 235 -102q52 -73 52 -177q0 -42 -8 -88l-111 -623q-3 -20 -22 -20h-177q-8 0 -12.5 5.5t-3.5 14.5l102 572q6 34 6 64q0 60 -24 100q-36 60 -123 61 q-85 0 -146.5 -61t-78.5 -160l-103 -576q-3 -20 -22 -20h-174q-9 0 -14.5 5.5t-4.5 14.5l101 572q7 36 7 67q1 57 -23 97q-36 60 -126 61q-83 0 -144.5 -61t-78.5 -160l-102 -576q-3 -20 -21 -20h-176q-21 0 -18 20z" />
<glyph unicode="n" horiz-adv-x="1077" d="M72 20l168 947q3 20 22 20h178q20 0 17 -20l-17 -76h2q103 119 273 119q153 0 223 -102q49 -72 50 -173q0 -43 -9 -92l-111 -623q-3 -20 -22 -20h-174q-8 0 -13 5.5t-4 14.5l101 572q6 34 6 64q0 60 -24 100q-36 60 -124 61q-84 0 -145 -61t-80 -160l-100 -576 q-3 -20 -21 -20h-178q-21 0 -18 20z" />
<glyph unicode="o" horiz-adv-x="1026" d="M86 322q0 95 26 223.5t66 208.5q125 256 436 256q163 0 257 -91.5t94 -252.5q0 -95 -26.5 -224t-66.5 -209q-128 -256 -436 -256q-163 0 -256.5 92t-93.5 253zM307 354q0 -91 38 -137.5t122 -46.5q137 0 205 135q28 57 49.5 162.5t21.5 165.5q0 91 -37.5 137.5 t-121.5 46.5q-138 0 -205 -137q-28 -55 -50 -160.5t-22 -165.5z" />
<glyph unicode="p" horiz-adv-x="1069" d="M8 -348l232 1315q3 20 22 20h178q20 0 17 -20l-15 -78h2q102 121 277 121q137 0 213 -87.5t76 -238.5q0 -106 -28 -248.5t-73 -232.5q-59 -118 -148.5 -172t-215.5 -54q-95 0 -154.5 34.5t-85.5 88.5h-2l-78 -448q-3 -21 -20 -21h-178q-9 0 -14.5 6t-4.5 15zM356 348 q0 -178 158 -178q139 0 205 135q27 53 48 159.5t21 174.5q0 89 -37 133.5t-120 44.5q-141 0 -205 -135q-26 -51 -48 -159t-22 -175z" />
<glyph unicode="q" horiz-adv-x="1071" d="M86 303q0 106 27.5 248.5t72.5 232.5q110 226 363 226q96 0 156 -34t86 -89h2l14 80q3 20 20 20h179q21 0 18 -20l-233 -1315q-3 -21 -23 -21h-178q-20 0 -17 21l78 446h-2q-99 -121 -276 -121q-135 0 -211 87.5t-76 238.5zM307 346q0 -88 37 -132t121 -44q137 0 205 133 q25 52 46 159.5t21 176.5q0 88 -36.5 133t-118.5 45q-139 0 -205 -135q-27 -54 -48.5 -160.5t-21.5 -175.5z" />
<glyph unicode="r" horiz-adv-x="831" d="M72 20l168 947q3 20 22 20h178q20 0 17 -20l-19 -88h2q46 61 114.5 96t150.5 35q125 0 186 -80q10 -17 0 -29l-121 -127q-15 -15 -29 -4q-60 47 -131 47q-180 0 -227 -260l-94 -537q-3 -20 -21 -20h-178q-21 0 -18 20z" />
<glyph unicode="s" horiz-adv-x="976" d="M35 131q-11 14 4 29l127 114q17 14 27 0q44 -49 114 -77.5t146 -28.5q94 0 151.5 43t57.5 102q0 42 -31 64.5t-99 28.5l-102 10q-125 12 -191.5 75.5t-66.5 163.5q0 167 119 261t301 94q103 0 193.5 -34.5t146.5 -86.5q12 -12 0 -29l-113 -110q-15 -15 -28 -5 q-101 78 -230 78q-79 0 -126.5 -38t-47.5 -91q0 -39 28 -60t103 -28l100 -10q131 -13 196 -74.5t65 -161.5q0 -175 -122 -279t-333 -104q-132 0 -233.5 45.5t-155.5 108.5z" />
<glyph unicode="t" horiz-adv-x="630" d="M135 274l98 533q3 12 -10 12h-65q-20 0 -17 21l21 127q3 20 22 20h68q13 0 16 12l47 271q1 9 8 14.5t15 5.5h176q19 0 16 -20l-47 -271q-3 -12 6 -12h132q19 0 16 -20l-21 -127q-4 -21 -22 -21h-133q-9 0 -12 -12l-97 -524q-4 -21 -4 -38q0 -27 11 -41q17 -22 69 -22h45 q19 0 16 -20l-26 -154q-3 -20 -23 -20h-92q-142 0 -191 69q-32 44 -32 122q0 42 10 95z" />
<glyph unicode="u" horiz-adv-x="1069" d="M119 344l110 623q3 20 21 20h176q21 0 18 -20l-102 -572q-6 -35 -6 -66q0 -59 23 -97q35 -60 122 -60q85 0 144.5 59.5t76.5 159.5l101 576q3 20 22 20h176q9 0 14.5 -5.5t4.5 -14.5l-168 -947q-3 -20 -23 -20h-176q-8 0 -12.5 5.5t-3.5 14.5l14 76h-2 q-107 -119 -268 -119q-151 0 -221 102q-50 73 -49 176q0 42 8 89z" />
<glyph unicode="v" horiz-adv-x="960" d="M135 967q0 20 19 20h180q17 0 20 -20l99 -658h4l325 658q9 20 27 20h190q10 0 14.5 -5.5t0.5 -14.5l-504 -947q-10 -20 -27 -20h-155q-20 0 -23 20z" />
<glyph unicode="w" horiz-adv-x="1480" d="M143 967q-3 20 19 20h168q21 0 24 -20l66 -672h4l307 672q10 20 27 20h145q20 0 23 -20l71 -672h2l297 672q9 20 27 20h193q8 0 11 -5.5t-1 -14.5l-465 -947q-10 -20 -27 -20h-155q-21 0 -21 20l-67 658h-5l-307 -658q-10 -20 -26 -20h-158q-18 0 -21 20z" />
<glyph unicode="x" horiz-adv-x="974" d="M-27.5 6q-3.5 6 2.5 14l410 494l-217 453q-3 8 1 14t15 6h189q22 0 30 -18l125 -277h2l224 277q15 18 32 18h199q10 0 13 -6.5t-3 -13.5l-372 -453l231 -494q8 -20 -18 -20h-183q-19 0 -28 20l-146 314h-2l-254 -314q-17 -20 -35 -20h-200q-12 0 -15.5 6z" />
<glyph unicode="y" horiz-adv-x="960" d="M18 -348l27 153q1 9 8.5 15t16.5 6h36q56 0 93 28.5t73 96.5l43 84l-182 932q-3 20 17 20h186q17 0 20 -20l101 -654h4l325 654q9 20 27 20h188q10 0 14.5 -5.5t0.5 -14.5l-551 -1030q-92 -174 -172 -240t-197 -66h-61q-9 0 -14.5 6t-2.5 15z" />
<glyph unicode="z" horiz-adv-x="960" d="M31 20l24 140q1 6 11 20l583 615v4h-436q-19 0 -16 20l26 148q3 20 23 20h684q19 0 16 -20l-26 -148q-2 -10 -11 -22l-575 -602v-5h454q20 0 17 -20l-25 -150q-3 -20 -22 -20h-711q-8 0 -12.5 5.5t-3.5 14.5z" />
<glyph unicode="{" horiz-adv-x="665" d="M125 602l27 150q3 20 24 20q66 0 104.5 39t53.5 121l61 344q20 116 91 178t182 62h108q20 0 17 -21l-23 -127q-3 -20 -20 -20h-60q-86 0 -100 -88l-60 -332q-20 -114 -60 -168.5t-120 -81.5v-2q71 -26 91 -80.5t1 -169.5l-61 -342q-14 -88 68 -88h59q20 0 16 -21 l-22 -127q-3 -20 -21 -20h-110q-111 0 -160 62t-29 180l62 352q14 82 -11 120.5t-92 39.5q-19 0 -16 20z" />
<glyph unicode="|" horiz-adv-x="657" d="M274 -152v1647q0 9 6 15t15 6h137q9 0 15 -6t6 -15v-1647q0 -20 -21 -20h-137q-21 0 -21 20z" />
<glyph unicode="}" horiz-adv-x="665" d="M-37 -152l21 127q3 21 20 21h59q87 0 101 88l61 342q20 113 60.5 168t120.5 82v2q-70 27 -90.5 81.5t-0.5 168.5l58 332q14 88 -68 88h-59q-20 0 -17 20l25 127q4 21 20 21h109q112 0 160 -61.5t28 -180.5l-57 -342q-15 -81 9.5 -119.5t90.5 -40.5q20 0 17 -20l-27 -150 q-3 -20 -24 -20q-66 0 -104.5 -39t-53.5 -121l-62 -354q-22 -117 -92 -178.5t-182 -61.5h-106q-20 0 -17 20z" />
<glyph unicode="~" horiz-adv-x="1038" d="M82 520q41 91 117 144t166 53q92 0 213 -74q80 -53 137 -53q50 0 82 24.5t63 79.5q11 18 31 4l98 -59q16 -11 6 -29q-40 -91 -115 -143.5t-167 -52.5q-96 0 -211 73q-88 54 -140 54q-49 0 -81.5 -25.5t-63.5 -79.5q-10 -17 -29 -4l-100 60q-14 9 -6 28z" />
<glyph unicode="&#xa1;" horiz-adv-x="595" d="M43 -385l211 965q3 20 22 20h117q18 0 15 -20l-127 -965q-3 -21 -21 -21h-201q-19 0 -16 21zM244 766l35 201q3 20 22 20h191q21 0 18 -20l-35 -201q-3 -21 -22 -21h-191q-9 0 -14 6t-4 15z" />
<glyph unicode="&#xa2;" d="M154 313q0 102 20.5 220t65.5 215q118 242 393 260l29 161q4 21 24 21h62q20 0 16 -21l-29 -163q173 -17 252 -162q7 -19 -8 -29l-123 -94q-18 -12 -31 6q-28 41 -56 61.5t-69 26.5l-110 -639q88 15 158 88q12 16 26 2l105 -104q13 -14 -2 -29q-119 -139 -322 -153 l-29 -162q-4 -21 -24 -21h-62q-20 0 -16 21l29 164q-143 14 -221 99.5t-78 231.5zM377 344q0 -141 110 -166l111 631q-104 -25 -152 -127q-32 -68 -50.5 -167.5t-18.5 -170.5z" />
<glyph unicode="&#xa3;" d="M115 20l26 150q3 12 15 25q44 38 65 73.5t35 114.5l33 174q3 12 -10 12h-93q-18 0 -14 21l21 121q3 20 22 20h90q11 0 14 12l54 289q33 191 139.5 287t269.5 96q128 0 197 -70.5t72 -185.5q0 -17 -21 -24l-162 -39q-18 -3 -18 16q-2 48 -26.5 78.5t-71.5 30.5 q-62 0 -103 -41t-53 -111l-55 -326q-3 -12 8 -12h237q20 0 17 -20l-21 -121q-4 -21 -24 -21h-238q-11 0 -14 -12l-23 -137q-24 -148 -88 -221l-2 -4h484q9 0 14 -6t4 -15l-29 -154q-3 -20 -22 -20h-711q-21 0 -18 20z" />
<glyph unicode="&#xa4;" d="M61 297q-11 15 7 29l139 120q-25 64 -25 136q0 169 101 307l-93 117q-10 14 5 26l112 98q6 6 15.5 6t13.5 -6l90 -114q105 59 227 59q115 0 201 -61l137 123q16 13 29 0l86 -107q11 -15 -6 -29l-139 -122q24 -62 24 -138q0 -170 -100 -307l94 -115q11 -15 -6 -28 l-111 -96q-18 -14 -28 0l-91 112q-105 -59 -229 -59t-205 63l-133 -118q-8 -6 -16 -6t-13 6zM360 606q0 -84 47.5 -137t129.5 -53q115 0 193.5 92t78.5 209q0 84 -47.5 137t-128.5 53q-115 0 -194 -91.5t-79 -209.5z" />
<glyph unicode="&#xa5;" d="M139 303l21 115q3 20 22 20h240q11 0 14 13l17 84q3 12 -11 12h-239q-20 0 -17 20l19 115q3 20 22 20h201v5l-182 665q-2 8 2.5 14.5t13.5 6.5h184q22 0 25 -21l129 -579h6l332 579q14 21 33 21h188q8 0 11 -6.5t-1 -14.5l-415 -665v-5h196q20 0 17 -20l-19 -115 q-3 -20 -22 -20h-244q-11 0 -14 -12l-15 -84q-3 -13 11 -13h239q20 0 17 -20l-19 -115q-3 -20 -22 -20h-246q-9 0 -12 -13l-43 -250q-3 -20 -23 -20h-178q-8 0 -13 5.5t-4 14.5l48 250q3 13 -11 13h-241q-20 0 -17 20z" />
<glyph unicode="&#xa6;" horiz-adv-x="657" d="M274 -152v689q0 20 21 20h137q21 0 21 -20v-689q0 -20 -21 -20h-137q-21 0 -21 20zM274 815v680q0 9 6 15t15 6h137q9 0 15 -6t6 -15v-680q0 -20 -21 -20h-137q-21 0 -21 20z" />
<glyph unicode="&#xa7;" horiz-adv-x="1120" d="M113 -111q0 20 16 23l162 33q16 3 16 -15q0 -75 28.5 -111t100.5 -36q78 0 130 50.5t52 133.5q0 64 -45 103.5t-153 66.5q-236 60 -236 289q0 131 66.5 245.5t183.5 168.5v2q-49 32 -73.5 81t-24.5 103q0 167 117.5 278t287.5 111q80 0 141 -24t94.5 -64t47.5 -89t8 -103 q-3 -19 -18 -21l-160 -33q-16 -3 -16 15q3 66 -28 105.5t-97 39.5q-76 0 -124 -52.5t-48 -131.5q0 -59 45 -96.5t149 -65.5q232 -64 232 -289q0 -129 -65.5 -243.5t-182.5 -169.5v-3q53 -28 78.5 -78t25.5 -110q0 -172 -116.5 -282.5t-292.5 -110.5q-160 0 -234.5 77 t-66.5 203zM387 465q0 -73 40.5 -113.5t111.5 -40.5q98 0 161.5 75t63.5 181q0 73 -40 113.5t-112 40.5q-97 0 -161 -75t-64 -181z" />
<glyph unicode="&#xa8;" horiz-adv-x="839" d="M270 1202l33 170q3 21 23 21h147q19 0 16 -21l-30 -170q-3 -20 -23 -20h-149q-20 0 -17 20zM657 1202l33 170q4 21 23 21h147q20 0 17 -21l-31 -170q-3 -20 -23 -20h-149q-20 0 -17 20z" />
<glyph unicode="&#xa9;" horiz-adv-x="1691" d="M168 696q0 200 94.5 365t259.5 259.5t365 94.5t365 -94.5t259.5 -259.5t94.5 -365t-94.5 -365t-259.5 -259.5t-365 -94.5t-365 94.5t-259.5 259.5t-94.5 365zM324 696q0 -161 74 -292t202.5 -205t286.5 -74q159 0 288 74t202 204.5t73 292.5q0 121 -43 227.5t-117.5 182 t-179 119t-223.5 43.5q-240 0 -401.5 -163.5t-161.5 -408.5zM561 696q0 106 23 185q33 106 118 162.5t207 56.5q169 0 267 -119q15 -15 -2 -29l-89 -78q-13 -12 -28 3q-32 38 -65 55.5t-81 17.5q-127 0 -166 -114q-14 -38 -14 -140q0 -101 14 -139q39 -115 166 -115 q48 0 81 17.5t65 56.5q15 15 28 2l89 -78q17 -13 2 -28q-98 -119 -267 -119q-122 0 -207 56.5t-118 162.5q-23 79 -23 184z" />
<glyph unicode="&#xaa;" horiz-adv-x="684" d="M162 944q0 107 78 164t206 57h109q9 0 12 13l4 18q8 35 -17 52.5t-93 17.5q-65 0 -137 -33q-7 -5 -15.5 -3t-11.5 9l-33 90q-7 21 10 29q91 51 234 51q146 0 197 -49.5t32 -159.5l-67 -377q-3 -20 -23 -20h-121q-21 0 -18 20l6 29h-4q-59 -59 -176 -59q-77 0 -124.5 38.5 t-47.5 112.5zM328 975q0 -23 20 -36t55 -13q121 0 136 86l4 22q3 13 -11 13h-94q-51 0 -80.5 -19.5t-29.5 -52.5z" />
<glyph unicode="&#xab;" horiz-adv-x="1064" d="M88 526q-12 16 4 29l471 414q6 6 13 3.5t6 -11.5l-35 -197q-5 -24 -27 -43l-207 -180q-10 -8 -4 -17l144 -184q17 -20 12 -43l-31 -176q-1 -9 -8.5 -11.5t-13.5 3.5zM535 526q-12 16 4 29l471 414q6 6 12.5 3.5t5.5 -11.5l-33 -197q-6 -25 -26 -43l-209 -180 q-10 -8 -4 -17l143 -184q17 -20 12 -43l-28 -176q-1 -9 -9 -11.5t-14 3.5z" />
<glyph unicode="&#xac;" d="M115 492v147q0 20 20 20h848q21 0 21 -20v-424q0 -20 -21 -20h-156q-20 0 -20 20v244q0 12 -12 12h-660q-20 0 -20 21z" />
<glyph unicode="&#xad;" horiz-adv-x="757" d="M94 461l31 162q1 9 7.5 14.5t14.5 5.5h541q20 0 17 -20l-31 -162q-4 -21 -23 -21h-540q-8 0 -13 6t-4 15z" />
<glyph unicode="&#xae;" horiz-adv-x="915" d="M174 1010q0 165 113 278t278 113q164 0 277.5 -113.5t113.5 -277.5q0 -166 -113.5 -280t-277.5 -114q-165 0 -278 114t-113 280zM254 1010q0 -136 89 -226t222 -90q131 0 220 90t89 226q0 135 -89 225t-220 90q-132 0 -221.5 -90t-89.5 -225zM403 809v405q0 15 15 15h172 q73 0 114 -34.5t41 -98.5q0 -88 -83 -121l88 -166q3 -6 0 -10t-11 -4h-69q-13 0 -19 14l-82 152h-63q-8 0 -8 -9v-143q0 -14 -15 -14h-65q-15 0 -15 14zM498 1053q0 -9 8 -9h82q67 0 67 52q0 53 -67 53h-82q-8 0 -8 -8v-88z" />
<glyph unicode="&#xaf;" horiz-adv-x="839" d="M283 1231l18 117q3 20 23 20h520q19 0 16 -20l-20 -117q-4 -21 -23 -21h-518q-19 0 -16 21z" />
<glyph unicode="&#xb0;" horiz-adv-x="948" d="M274 1112q0 130 85.5 216.5t215.5 86.5q128 0 215 -87t87 -216t-87 -215t-215 -86q-130 0 -215.5 86t-85.5 215zM408 1112q0 -74 47 -124t120 -50q72 0 120 50t48 124q0 75 -47.5 124.5t-120.5 49.5t-120 -49.5t-47 -124.5z" />
<glyph unicode="&#xb1;" d="M84 20v152q0 21 20 21h848q9 0 15 -6t6 -15v-152q0 -20 -21 -20h-848q-20 0 -20 20zM84 680v149q0 21 20 21h316q12 0 12 12v318q0 20 21 20h153q21 0 21 -20v-318q0 -12 12 -12h313q9 0 15 -6t6 -15v-149q0 -9 -6 -15t-15 -6h-313q-12 0 -12 -12v-315q0 -9 -6 -15 t-15 -6h-153q-9 0 -15 6t-6 15v315q0 12 -12 12h-316q-20 0 -20 21z" />
<glyph unicode="&#xb2;" horiz-adv-x="681" d="M162 901l20 109q3 14 17 28l342 330q77 77 77 139q0 33 -19 52.5t-56 19.5q-73 0 -117 -92q-8 -17 -23 -14l-118 26q-17 3 -11 23q28 86 104.5 146.5t192.5 60.5q102 0 161 -54.5t59 -142.5q0 -70 -32 -129t-97 -123l-261 -248v-2h283q19 0 16 -20l-16 -109 q-3 -20 -25 -20h-481q-19 0 -16 20z" />
<glyph unicode="&#xb3;" horiz-adv-x="681" d="M182 1051q-1 9 4 16.5t13 9.5l123 29q14 2 20 -16q8 -33 33 -54.5t63 -21.5q53 0 91 37.5t38 93.5q0 40 -25.5 63t-74.5 23h-37q-19 0 -16 20l18 109q3 20 25 20h28q56 0 89.5 33t33.5 90q0 35 -20.5 55.5t-57.5 20.5q-68 0 -108 -63q-12 -18 -27 -15l-108 29 q-17 3 -11 22q31 77 107 127t178 50q106 0 164.5 -52.5t58.5 -138.5q0 -144 -118 -217v-2q30 -19 50.5 -56.5t20.5 -88.5q0 -140 -89 -225t-226 -85q-102 0 -164.5 48t-75.5 139z" />
<glyph unicode="&#xb4;" horiz-adv-x="839" d="M364.5 1142.5q-3.5 5.5 2.5 14.5l184 256q15 21 39 21h180q9 0 11 -8t-5 -15l-229 -254q-20 -20 -43 -20h-127q-9 0 -12.5 5.5z" />
<glyph unicode="&#xb5;" d="M8 -348l232 1315q3 20 22 20h172q9 0 14.5 -5.5t4.5 -14.5l-101 -574q-18 -103 16.5 -162t123.5 -59q84 0 144 59.5t77 159.5l100 576q3 20 21 20h178q21 0 18 -20l-168 -947q-3 -20 -22 -20h-178q-8 0 -13 5.5t-4 14.5l17 82h-3q-38 -55 -99 -90t-132 -35q-97 0 -133 56 h-4l-68 -381q-3 -21 -20 -21h-176q-9 0 -14.5 6t-4.5 15z" />
<glyph unicode="&#xb6;" horiz-adv-x="1239" d="M233 958q32 187 173 311t348 124h469q8 0 12.5 -6t3.5 -15l-303 -1720q-4 -21 -23 -21h-147q-20 0 -16 21l272 1546q3 12 -10 12h-144q-11 0 -14 -12l-274 -1546q-4 -21 -23 -21h-145q-20 0 -17 21l154 878q-172 10 -259 131t-57 297z" />
<glyph unicode="&#xb7;" horiz-adv-x="493" d="M135 442l33 201q4 21 22 21h191q9 0 14 -6t4 -15l-32 -201q-3 -20 -23 -20h-190q-9 0 -14.5 5.5t-4.5 14.5z" />
<glyph unicode="&#xb8;" horiz-adv-x="839" d="M152 -295l170 295q11 20 30 20h123q9 0 12.5 -5.5t-0.5 -14.5l-143 -295q-10 -20 -35 -20h-147q-20 0 -10 20z" />
<glyph unicode="&#xb9;" horiz-adv-x="681" d="M317 1442l27 137q3 22 23 33l135 86q22 14 37 14h127q8 0 12.5 -5.5t3.5 -14.5l-139 -791q-3 -20 -23 -20h-131q-19 0 -16 20l106 612h-4l-137 -83q-9 -6 -16 -1.5t-5 13.5z" />
<glyph unicode="&#xba;" horiz-adv-x="700" d="M176 1008q0 127 49 231q81 170 297 170q112 0 177 -56t65 -165q0 -124 -51 -232q-81 -170 -297 -170q-112 0 -176 56t-64 166zM354 1044q0 -51 19.5 -77.5t66.5 -26.5q72 0 113 74q13 28 22 69t9 68q0 51 -19.5 77.5t-66.5 26.5q-72 0 -113 -71q-31 -71 -31 -140z" />
<glyph unicode="&#xbb;" horiz-adv-x="1064" d="M78 121l33 196q6 25 26 43l209 181q10 7 4 16l-143 184q-17 20 -12 43l28 177q1 9 9 11.5t14 -3.5l325 -414q12 -16 -4 -29l-471 -413q-6 -6 -12.5 -3.5t-5.5 11.5zM524 121l35 196q5 24 27 43l207 181q10 7 4 16l-144 184q-17 20 -12 43l31 177q1 9 8.5 11.5t13.5 -3.5 l324 -414q12 -16 -4 -29l-471 -413q-6 -6 -13 -3.5t-6 11.5z" />
<glyph unicode="&#xbc;" horiz-adv-x="1656" d="M273 -16.5q-3 6.5 3 14.5l1022 1397q14 20 35 20h127q9 0 11 -6.5t-3 -13.5l-1022 -1397q-15 -21 -34 -21h-127q-9 0 -12 6.5zM299 1122l27 138q3 21 22 32l135 86q24 15 37 15h127q8 0 13 -6t4 -15l-140 -790q-4 -21 -22 -21h-131q-9 0 -14 6t-3 15l107 612h-4l-138 -84 q-9 -6 -15.5 -1.5t-4.5 13.5zM881 145l18 107q3 16 14 33l338 526q13 20 35 20h127q8 0 10.5 -5.5t-2.5 -14.5l-329 -535v-2h151q11 0 14 13l31 170q1 9 8 14.5t15 5.5h121q19 0 16 -20l-29 -170q-3 -13 8 -13h39q18 0 15 -20l-19 -109q-3 -20 -22 -20h-39q-9 0 -12 -12 l-17 -93q-3 -20 -24 -20h-123q-18 0 -15 20l17 93q3 12 -10 12h-320q-19 0 -16 20z" />
<glyph unicode="&#xbd;" horiz-adv-x="1736" d="M273 -16.5q-3 6.5 3 14.5l1022 1397q14 20 35 20h127q9 0 11 -6.5t-3 -13.5l-1022 -1397q-15 -21 -34 -21h-127q-9 0 -12 6.5zM299 1122l27 138q3 21 22 32l135 86q24 15 37 15h127q8 0 13 -6t4 -15l-140 -790q-4 -21 -22 -21h-131q-9 0 -14 6t-3 15l107 612h-4l-138 -84 q-9 -6 -15.5 -1.5t-4.5 13.5zM979 20l20 109q3 15 17 29l342 329q78 78 78 140q0 33 -19.5 52t-56.5 19q-73 0 -117 -92q-8 -17 -22 -14l-119 26q-17 3 -10 23q28 86 104.5 146.5t192.5 60.5q102 0 160.5 -54.5t58.5 -142.5q0 -70 -32 -129t-97 -123l-260 -247v-2h282 q9 0 14 -6t3 -15l-17 -109q-3 -20 -24 -20h-482q-19 0 -16 20z" />
<glyph unicode="&#xbe;" horiz-adv-x="1771" d="M223 731q-1 9 4 17t13 10l122 28q15 2 21 -16q8 -33 33 -54.5t63 -21.5q53 0 91 37.5t38 93.5q0 40 -25.5 63t-74.5 23h-37q-19 0 -16 21l18 108q3 21 25 21h28q56 0 89.5 33t33.5 90q0 35 -20.5 55.5t-57.5 20.5q-67 0 -108 -64q-11 -17 -27 -14l-108 28q-18 3 -11 23 q31 77 107 126.5t178 49.5q106 0 164.5 -52t58.5 -138q0 -145 -118 -218v-2q30 -19 50.5 -56.5t20.5 -88.5q0 -140 -89 -224.5t-226 -84.5q-102 0 -164.5 47.5t-75.5 138.5zM387.5 -16.5q-2.5 6.5 3.5 14.5l1022 1397q14 20 35 20h127q9 0 11 -6.5t-3 -13.5l-1022 -1397 q-15 -21 -35 -21h-127q-9 0 -11.5 6.5zM995 145l19 107q3 16 14 33l338 526q13 20 35 20h127q8 0 11 -5.5t-3 -14.5l-330 -535v-2h152q11 0 14 13l31 170q1 9 7.5 14.5t14.5 5.5h121q20 0 17 -20l-29 -170q-3 -13 8 -13h39q17 0 14 -20l-18 -109q-3 -20 -23 -20h-38 q-10 0 -13 -12l-16 -93q-3 -20 -25 -20h-123q-17 0 -14 20l16 93q3 12 -10 12h-319q-20 0 -17 20z" />
<glyph unicode="&#xbf;" horiz-adv-x="911" d="M0 -141q0 78 34 152.5t107 160.5l183 213q28 31 41 58.5t24 76.5l14 62q1 9 8 14.5t15 5.5h176q19 0 16 -20l-16 -86q-10 -58 -29.5 -98t-56.5 -81l-182 -213q-62 -70 -86.5 -115.5t-24.5 -97.5q0 -57 33.5 -90.5t95.5 -33.5q68 0 123 47t84 123q6 19 25 16l168 -27 q17 -3 10 -24q-47 -153 -166 -241.5t-279 -88.5q-145 0 -231 79t-86 208zM426 766l33 201q3 20 22 20h193q21 0 18 -20l-35 -201q-3 -21 -22 -21h-191q-9 0 -14 6t-4 15z" />
<glyph unicode="&#xc0;" horiz-adv-x="1218" d="M-35 20l701 1352q10 21 30 21h176q20 0 23 -21l213 -1352q3 -20 -14 -20h-185q-19 0 -22 20l-41 279h-502l-141 -279q-9 -20 -27 -20h-201q-20 0 -10 20zM446 502h371l-80 563h-6zM499.5 1811.5q3.5 7.5 12.5 7.5h178q26 0 41 -21l137 -219q4 -7 0.5 -13.5t-12.5 -6.5 h-135q-19 0 -33 16l-186 221q-6 8 -2.5 15.5z" />
<glyph unicode="&#xc1;" horiz-adv-x="1218" d="M-35 20l701 1352q10 21 30 21h176q20 0 23 -21l213 -1352q3 -20 -14 -20h-185q-19 0 -22 20l-41 279h-502l-141 -279q-9 -20 -27 -20h-201q-20 0 -10 20zM446 502h371l-80 563h-6zM724.5 1565.5q-3.5 6.5 2.5 13.5l205 219q21 21 43 21h190q9 0 12 -6.5t-6 -14.5 l-260 -223q-18 -16 -39 -16h-135q-9 0 -12.5 6.5z" />
<glyph unicode="&#xc2;" horiz-adv-x="1218" d="M-35 20l701 1352q10 21 30 21h176q20 0 23 -21l213 -1352q3 -20 -14 -20h-185q-19 0 -22 20l-41 279h-502l-141 -279q-9 -20 -27 -20h-201q-20 0 -10 20zM446 502h371l-80 563h-6zM510.5 1549q-2.5 7 3.5 14l240 258q15 18 41 18h114q19 0 29 -18l149 -258q5 -7 1 -14 t-13 -7h-112q-21 0 -37 21l-90 129h-2l-138 -129q-21 -21 -45 -21h-129q-9 0 -11.5 7z" />
<glyph unicode="&#xc3;" horiz-adv-x="1218" d="M-35 20l701 1352q10 21 30 21h176q20 0 23 -21l213 -1352q3 -20 -14 -20h-185q-19 0 -22 20l-41 279h-502l-141 -279q-9 -20 -27 -20h-201q-20 0 -10 20zM446 502h371l-80 563h-6zM524 1575l23 123q5 22 22 39q66 63 152 63q63 0 127 -41q53 -37 102 -37q73 0 144 64 q6 6 12 3t4 -9l-23 -123q-5 -22 -22 -39q-70 -64 -152 -64q-63 0 -127 41q-56 37 -102 37q-74 0 -143 -63q-6 -6 -12.5 -3t-4.5 9z" />
<glyph unicode="&#xc4;" horiz-adv-x="1218" d="M-35 20l701 1352q10 21 30 21h176q20 0 23 -21l213 -1352q3 -20 -14 -20h-185q-19 0 -22 20l-41 279h-502l-141 -279q-9 -20 -27 -20h-201q-20 0 -10 20zM446 502h371l-80 563h-6zM526 1599l33 170q3 21 23 21h145q19 0 16 -21l-28 -170q-3 -20 -23 -20h-149 q-20 0 -17 20zM913 1599l33 170q4 21 23 21h147q20 0 17 -21l-31 -170q-3 -20 -23 -20h-149q-20 0 -17 20z" />
<glyph unicode="&#xc5;" horiz-adv-x="1218" d="M-35 20l701 1352q10 21 30 21h176q20 0 23 -21l213 -1352q3 -20 -14 -20h-185q-19 0 -22 20l-41 279h-502l-141 -279q-9 -20 -27 -20h-201q-20 0 -10 20zM446 502h371l-80 563h-6zM621 1640q0 98 66 170t169 72q72 0 118 -46t46 -118q0 -98 -66 -168.5t-168 -70.5 q-74 0 -119.5 44.5t-45.5 116.5zM721 1657q0 -37 22.5 -60.5t59.5 -23.5q48 0 82.5 36.5t34.5 92.5q0 37 -22 60.5t-58 23.5q-49 0 -84 -36.5t-35 -92.5z" />
<glyph unicode="&#xc6;" horiz-adv-x="1820" d="M-37.5 5.5q-3.5 5.5 2.5 14.5l893 1352q14 21 31 21h985q9 0 14 -6t4 -15l-30 -164q-3 -20 -25 -20h-610q-12 0 -15 -12l-63 -359q-3 -12 10 -12h518q9 0 14 -6t3 -15l-31 -163q-1 -9 -8.5 -15t-16.5 -6h-516q-11 0 -14 -12l-66 -371q-3 -12 11 -12h612q19 0 16 -21 l-28 -164q-3 -20 -23 -20h-831q-9 0 -14.5 5.5t-4.5 14.5l47 267q3 12 -10 12h-416l-182 -279q-11 -20 -29 -20h-215q-9 0 -12.5 5.5zM532 502h322q11 0 14 12l117 672h-4z" />
<glyph unicode="&#xc7;" horiz-adv-x="1128" d="M115 395q0 102 48 353t97 348q153 319 510 319q154 0 255.5 -80t135.5 -221q7 -17 -14 -24l-162 -72q-9 -4 -15.5 -1t-8.5 11q-49 182 -218 182q-184 0 -278 -192q-38 -81 -77.5 -299.5t-39.5 -304.5q0 -107 56.5 -168.5t162.5 -61.5q85 0 156.5 50t120.5 131 q11 18 28 10l150 -78q15 -7 4 -25q-87 -140 -193 -210t-245 -82l-133 -275q-10 -20 -35 -20h-148q-20 0 -10 20l162 283q-143 27 -226 131.5t-83 275.5z" />
<glyph unicode="&#xc8;" horiz-adv-x="1116" d="M76 20l239 1352q3 21 23 21h831q9 0 14.5 -6t4.5 -15l-29 -164q-3 -20 -24 -20h-613q-11 0 -14 -12l-64 -359q-3 -12 11 -12h518q19 0 16 -21l-31 -163q-4 -21 -24 -21h-516q-12 0 -15 -12l-65 -371q-3 -12 10 -12h613q19 0 16 -21l-29 -164q-3 -20 -22 -20h-832 q-21 0 -18 20zM503.5 1811.5q3.5 7.5 12.5 7.5h178q26 0 41 -21l137 -219q4 -7 0.5 -13.5t-12.5 -6.5h-135q-19 0 -33 16l-186 221q-6 8 -2.5 15.5z" />
<glyph unicode="&#xc9;" horiz-adv-x="1116" d="M76 20l239 1352q3 21 23 21h831q9 0 14.5 -6t4.5 -15l-29 -164q-3 -20 -24 -20h-613q-11 0 -14 -12l-64 -359q-3 -12 11 -12h518q19 0 16 -21l-31 -163q-4 -21 -24 -21h-516q-12 0 -15 -12l-65 -371q-3 -12 10 -12h613q19 0 16 -21l-29 -164q-3 -20 -22 -20h-832 q-21 0 -18 20zM651 1565.5q-4 6.5 2 13.5l205 219q21 21 43 21h191q9 0 12 -6.5t-6 -14.5l-260 -223q-18 -16 -39 -16h-135q-9 0 -13 6.5z" />
<glyph unicode="&#xca;" horiz-adv-x="1116" d="M76 20l239 1352q3 21 23 21h831q9 0 14.5 -6t4.5 -15l-29 -164q-3 -20 -24 -20h-613q-11 0 -14 -12l-64 -359q-3 -12 11 -12h518q19 0 16 -21l-31 -163q-4 -21 -24 -21h-516q-12 0 -15 -12l-65 -371q-3 -12 10 -12h613q19 0 16 -21l-29 -164q-3 -20 -22 -20h-832 q-21 0 -18 20zM500.5 1549q-2.5 7 3.5 14l239 258q15 18 41 18h115q19 0 29 -18l149 -258q5 -7 1 -14t-13 -7h-113q-21 0 -37 21l-90 129h-2l-137 -129q-21 -21 -45 -21h-129q-9 0 -11.5 7z" />
<glyph unicode="&#xcb;" horiz-adv-x="1116" d="M76 20l239 1352q3 21 23 21h831q9 0 14.5 -6t4.5 -15l-29 -164q-3 -20 -24 -20h-613q-11 0 -14 -12l-64 -359q-3 -12 11 -12h518q19 0 16 -21l-31 -163q-4 -21 -24 -21h-516q-12 0 -15 -12l-65 -371q-3 -12 10 -12h613q19 0 16 -21l-29 -164q-3 -20 -22 -20h-832 q-21 0 -18 20zM516 1599l33 170q3 21 22 21h146q19 0 16 -21l-28 -170q-3 -20 -23 -20h-150q-19 0 -16 20zM903 1599l33 170q4 21 22 21h148q20 0 16 -21l-30 -170q-3 -20 -23 -20h-149q-20 0 -17 20z" />
<glyph unicode="&#xcc;" horiz-adv-x="524" d="M76 20l239 1352q3 21 23 21h188q20 0 17 -21l-240 -1352q-3 -20 -20 -20h-189q-21 0 -18 20zM157.5 1811.5q3.5 7.5 12.5 7.5h178q26 0 41 -21l137 -219q4 -7 0.5 -13.5t-12.5 -6.5h-135q-19 0 -33 16l-186 221q-6 8 -2.5 15.5z" />
<glyph unicode="&#xcd;" horiz-adv-x="524" d="M76 20l239 1352q3 21 23 21h188q20 0 17 -21l-240 -1352q-3 -20 -20 -20h-189q-21 0 -18 20zM382.5 1565.5q-3.5 6.5 2.5 13.5l205 219q21 21 43 21h190q9 0 12 -6.5t-6 -14.5l-260 -223q-18 -16 -39 -16h-135q-9 0 -12.5 6.5z" />
<glyph unicode="&#xce;" horiz-adv-x="524" d="M76 20l239 1352q3 21 23 21h188q20 0 17 -21l-240 -1352q-3 -20 -20 -20h-189q-21 0 -18 20zM178.5 1549q-2.5 7 3.5 14l240 258q15 18 41 18h115q18 0 28 -18l150 -258q4 -7 0 -14t-13 -7h-112q-21 0 -37 21l-90 129h-2l-137 -129q-21 -21 -46 -21h-129q-9 0 -11.5 7z " />
<glyph unicode="&#xcf;" horiz-adv-x="524" d="M76 20l239 1352q3 21 23 21h188q20 0 17 -21l-240 -1352q-3 -20 -20 -20h-189q-21 0 -18 20zM180 1599l33 170q3 21 23 21h145q19 0 16 -21l-28 -170q-3 -20 -23 -20h-149q-20 0 -17 20zM567 1599l33 170q4 21 23 21h147q20 0 16 -21l-30 -170q-3 -20 -23 -20h-149 q-20 0 -17 20z" />
<glyph unicode="&#xd0;" horiz-adv-x="1228" d="M76 20l104 584q3 12 -8 12h-55q-9 0 -14 6t-3 15l25 133q1 9 8.5 15t16.5 6h51q12 0 14 12l100 569q3 21 23 21h475q194 0 288.5 -99.5t94.5 -285.5q0 -144 -43 -382.5t-102 -355.5q-72 -149 -187.5 -209.5t-294.5 -60.5h-475q-21 0 -18 20zM338 217q-3 -12 10 -12h205 q112 0 187 43t122 137q36 74 74.5 277t38.5 301q0 118 -63 171.5t-187 53.5h-205q-9 0 -12 -12l-68 -373q-3 -12 11 -12h194q9 0 14 -6t3 -15l-23 -133q-3 -21 -23 -21h-194q-11 0 -14 -12z" />
<glyph unicode="&#xd1;" horiz-adv-x="1290" d="M76 20l239 1352q3 21 23 21h178q22 0 31 -21l371 -981h8l176 981q4 21 22 21h168q20 0 17 -21l-238 -1352q-3 -20 -22 -20h-177q-21 0 -30 20l-377 979h-8l-174 -979q-3 -20 -21 -20h-168q-21 0 -18 20zM563 1575l23 123q5 22 22 39q66 63 152 63q63 0 127 -41 q53 -37 102 -37q73 0 144 64q6 6 12 3t4 -9l-23 -123q-5 -22 -22 -39q-70 -64 -152 -64q-63 0 -127 41q-56 37 -102 37q-74 0 -143 -63q-6 -6 -12.5 -3t-4.5 9z" />
<glyph unicode="&#xd2;" horiz-adv-x="1228" d="M115 395q0 102 48 355t97 350q78 163 208 239t318 76q191 0 305.5 -108.5t114.5 -309.5q0 -101 -47.5 -354t-95.5 -350q-81 -164 -210.5 -240t-317.5 -76q-190 0 -305 109t-115 309zM348 414q0 -107 59 -168.5t164 -61.5q97 0 170 50.5t115 140.5q39 81 79 299t40 305 q0 106 -59.5 168.5t-163.5 62.5q-97 0 -169.5 -51t-115.5 -141q-39 -81 -79 -299t-40 -305zM534.5 1811.5q3.5 7.5 12.5 7.5h178q26 0 41 -21l137 -219q5 -7 1 -13.5t-13 -6.5h-135q-19 0 -33 16l-186 221q-6 8 -2.5 15.5z" />
<glyph unicode="&#xd3;" horiz-adv-x="1228" d="M115 395q0 102 48 355t97 350q78 163 208 239t318 76q191 0 305.5 -108.5t114.5 -309.5q0 -101 -47.5 -354t-95.5 -350q-81 -164 -210.5 -240t-317.5 -76q-190 0 -305 109t-115 309zM348 414q0 -107 59 -168.5t164 -61.5q97 0 170 50.5t115 140.5q39 81 79 299t40 305 q0 106 -59.5 168.5t-163.5 62.5q-97 0 -169.5 -51t-115.5 -141q-39 -81 -79 -299t-40 -305zM718.5 1565.5q-3.5 6.5 2.5 13.5l205 219q21 21 43 21h190q9 0 12 -6.5t-6 -14.5l-260 -223q-18 -16 -39 -16h-135q-9 0 -12.5 6.5z" />
<glyph unicode="&#xd4;" horiz-adv-x="1228" d="M115 395q0 102 48 355t97 350q78 163 208 239t318 76q191 0 305.5 -108.5t114.5 -309.5q0 -101 -47.5 -354t-95.5 -350q-81 -164 -210.5 -240t-317.5 -76q-190 0 -305 109t-115 309zM348 414q0 -107 59 -168.5t164 -61.5q97 0 170 50.5t115 140.5q39 81 79 299t40 305 q0 106 -59.5 168.5t-163.5 62.5q-97 0 -169.5 -51t-115.5 -141q-39 -81 -79 -299t-40 -305zM520.5 1565.5q-2.5 6.5 3.5 13.5l240 258q15 18 41 18h115q20 0 28 -18l150 -258q4 -7 0 -13.5t-13 -6.5h-112q-22 0 -37 20l-90 129h-2l-137 -129q-20 -20 -45 -20h-130 q-9 0 -11.5 6.5z" />
<glyph unicode="&#xd5;" horiz-adv-x="1228" d="M115 395q0 102 48 355t97 350q78 163 208 239t318 76q191 0 305.5 -108.5t114.5 -309.5q0 -101 -47.5 -354t-95.5 -350q-81 -164 -210.5 -240t-317.5 -76q-190 0 -305 109t-115 309zM348 414q0 -107 59 -168.5t164 -61.5q97 0 170 50.5t115 140.5q39 81 79 299t40 305 q0 106 -59.5 168.5t-163.5 62.5q-97 0 -169.5 -51t-115.5 -141q-39 -81 -79 -299t-40 -305zM530 1575l23 123q5 22 22 39q66 63 152 63q63 0 127 -41q53 -37 102 -37q73 0 144 64q6 6 12 3t4 -9l-22 -123q-5 -21 -23 -39q-70 -64 -151 -64q-63 0 -127 41q-56 37 -103 37 q-74 0 -143 -63q-6 -6 -12.5 -3t-4.5 9z" />
<glyph unicode="&#xd6;" horiz-adv-x="1228" d="M115 395q0 102 48 355t97 350q78 163 208 239t318 76q191 0 305.5 -108.5t114.5 -309.5q0 -101 -47.5 -354t-95.5 -350q-81 -164 -210.5 -240t-317.5 -76q-190 0 -305 109t-115 309zM348 414q0 -107 59 -168.5t164 -61.5q97 0 170 50.5t115 140.5q39 81 79 299t40 305 q0 106 -59.5 168.5t-163.5 62.5q-97 0 -169.5 -51t-115.5 -141q-39 -81 -79 -299t-40 -305zM524 1599l33 170q3 21 23 21h145q19 0 16 -21l-28 -170q-3 -20 -23 -20h-149q-20 0 -17 20zM911 1599l33 170q4 21 23 21h147q20 0 16 -21l-30 -170q-3 -20 -23 -20h-149 q-20 0 -17 20z" />
<glyph unicode="&#xd7;" d="M160 287q-14 14 0 28l241 242q8 8 0 16l-241 242q-14 15 0 29l102 102q14 14 29 0l241 -239q10 -9 19 0l242 239q14 14 28 0l101 -102q14 -14 0 -29l-242 -240q-9 -9 0 -18l242 -242q14 -14 0 -28l-101 -103q-14 -14 -28 0l-244 240q-9 8 -17 0l-241 -240q-15 -14 -29 0z " />
<glyph unicode="&#xd8;" horiz-adv-x="1228" d="M36.5 -54.5q-1.5 6.5 4.5 13.5l137 188q-63 97 -63 248q0 102 48 355t97 350q78 163 208 239t318 76q170 0 279 -86l80 107q11 18 31 18h112q18 0 6 -20l-147 -199q59 -100 59 -238q0 -101 -47.5 -354t-95.5 -350q-81 -164 -210.5 -240t-317.5 -76q-162 0 -271 80 l-74 -100q-11 -18 -32 -18h-111q-9 0 -10.5 6.5zM346 414q0 -29 2 -43l574 772q-61 67 -170 67q-98 0 -171.5 -50t-115.5 -140q-39 -81 -79 -300t-40 -306zM408 242q60 -60 163 -60q97 0 171 51.5t116 141.5q39 81 79 300t40 306q0 17 -2 27z" />
<glyph unicode="&#xd9;" horiz-adv-x="1263" d="M156 500l153 872q1 9 7 15t14 6h186q9 0 14.5 -6t4.5 -15l-156 -880q-26 -147 35.5 -227.5t185.5 -80.5q127 0 201.5 67.5t105.5 240.5l156 880q3 21 22 21h187q9 0 14 -6t4 -15l-160 -903q-24 -137 -72 -233t-119 -152.5t-157.5 -81.5t-197.5 -25q-231 0 -350.5 141 t-77.5 382zM532.5 1811.5q3.5 7.5 12.5 7.5h178q26 0 41 -21l137 -219q5 -7 1 -13.5t-13 -6.5h-135q-19 0 -33 16l-186 221q-6 8 -2.5 15.5z" />
<glyph unicode="&#xda;" horiz-adv-x="1263" d="M156 500l153 872q1 9 7 15t14 6h186q9 0 14.5 -6t4.5 -15l-156 -880q-26 -147 35.5 -227.5t185.5 -80.5q127 0 201.5 67.5t105.5 240.5l156 880q3 21 22 21h187q9 0 14 -6t4 -15l-160 -903q-24 -137 -72 -233t-119 -152.5t-157.5 -81.5t-197.5 -25q-231 0 -350.5 141 t-77.5 382zM741 1565.5q-4 6.5 2 13.5l205 219q21 21 43 21h191q9 0 12 -6.5t-6 -14.5l-260 -223q-18 -16 -39 -16h-135q-9 0 -13 6.5z" />
<glyph unicode="&#xdb;" horiz-adv-x="1263" d="M156 500l153 872q1 9 7 15t14 6h186q9 0 14.5 -6t4.5 -15l-156 -880q-26 -147 35.5 -227.5t185.5 -80.5q127 0 201.5 67.5t105.5 240.5l156 880q3 21 22 21h187q9 0 14 -6t4 -15l-160 -903q-24 -137 -72 -233t-119 -152.5t-157.5 -81.5t-197.5 -25q-231 0 -350.5 141 t-77.5 382zM553.5 1549q-2.5 7 3.5 14l240 258q15 18 41 18h114q19 0 29 -18l149 -258q5 -7 1 -14t-13 -7h-112q-21 0 -37 21l-90 129h-2l-138 -129q-21 -21 -45 -21h-129q-9 0 -11.5 7z" />
<glyph unicode="&#xdc;" horiz-adv-x="1263" d="M156 500l153 872q1 9 7 15t14 6h186q9 0 14.5 -6t4.5 -15l-156 -880q-26 -147 35.5 -227.5t185.5 -80.5q127 0 201.5 67.5t105.5 240.5l156 880q3 21 22 21h187q9 0 14 -6t4 -15l-160 -903q-24 -137 -72 -233t-119 -152.5t-157.5 -81.5t-197.5 -25q-231 0 -350.5 141 t-77.5 382zM561 1599l33 170q4 21 22 21h146q20 0 16 -21l-28 -170q-3 -20 -23 -20h-149q-20 0 -17 20zM948 1599l33 170q3 21 23 21h147q19 0 16 -21l-30 -170q-3 -20 -23 -20h-149q-20 0 -17 20z" />
<glyph unicode="&#xdd;" horiz-adv-x="1062" d="M195 1372q-2 8 3 14.5t15 6.5h186q21 0 27 -21l168 -555h6l365 555q12 21 30 21h195q11 0 15 -6.5t-1 -14.5l-534 -803l-99 -549q-3 -20 -22 -20h-184q-9 0 -14.5 5.5t-4.5 14.5l98 549zM624.5 1565.5q-3.5 6.5 2.5 13.5l204 219q21 21 43 21h191q9 0 12 -6.5t-6 -14.5 l-260 -223q-18 -16 -39 -16h-135q-9 0 -12.5 6.5z" />
<glyph unicode="&#xde;" horiz-adv-x="1175" d="M78 20l239 1352q3 21 23 21h186q20 0 17 -21l-37 -207q-3 -12 10 -12h279q174 0 272 -91t98 -249q0 -249 -143 -383.5t-377 -134.5h-278q-12 0 -15 -12l-47 -263q-3 -20 -22 -20h-187q-21 0 -18 20zM391 514q-3 -12 10 -12h265q119 0 195.5 74t76.5 198q0 80 -51.5 127 t-141.5 47h-264q-11 0 -14 -12z" />
<glyph unicode="&#xdf;" horiz-adv-x="1110" d="M72 20l174 984q72 411 483 411q171 0 261.5 -68.5t90.5 -191.5q0 -208 -159 -295v-4q84 -53 84 -176q0 -97 -30 -258t-69 -242q-50 -100 -138.5 -143t-229.5 -43h-56q-19 0 -16 20l25 152q3 20 24 20h49q60 0 96 18.5t60 67.5q19 35 43 173.5t24 183.5q0 64 -36 94.5 t-113 30.5h-23q-19 0 -16 20l29 154q3 20 22 20h43q78 0 122 46t44 122q0 107 -158 107q-105 0 -161 -49.5t-76 -161.5l-176 -992q-3 -20 -21 -20h-178q-21 0 -18 20z" />
<glyph unicode="&#xe0;" horiz-adv-x="1028" d="M70 233q0 172 114.5 263.5t323.5 91.5h192q14 0 17 12l8 55q18 91 -20.5 129.5t-157.5 38.5q-137 0 -232 -69q-19 -13 -26 4l-49 129q-6 15 8 26q65 44 158.5 70.5t193.5 26.5q210 0 288 -80t46 -262l-115 -648q-3 -20 -22 -20h-162q-8 0 -13 5.5t-4 14.5l13 76h-2 q-93 -119 -289 -119q-118 0 -194 69t-76 187zM283 262q0 -52 36 -80t107 -28q103 0 166 44.5t76 129.5l14 84q3 12 -10 12h-158q-122 0 -176.5 -40.5t-54.5 -121.5zM414 1413q-4 7 0.5 14t13.5 7h170q22 0 31 -21l102 -256q3 -9 -2 -14.5t-14 -5.5h-125q-21 0 -35 20z" />
<glyph unicode="&#xe1;" horiz-adv-x="1028" d="M70 233q0 172 114.5 263.5t323.5 91.5h192q14 0 17 12l8 55q18 91 -20.5 129.5t-157.5 38.5q-137 0 -232 -69q-19 -13 -26 4l-49 129q-6 15 8 26q65 44 158.5 70.5t193.5 26.5q210 0 288 -80t46 -262l-115 -648q-3 -20 -22 -20h-162q-8 0 -13 5.5t-4 14.5l13 76h-2 q-93 -119 -289 -119q-118 0 -194 69t-76 187zM283 262q0 -52 36 -80t107 -28q103 0 166 44.5t76 129.5l14 84q3 12 -10 12h-158q-122 0 -176.5 -40.5t-54.5 -121.5zM546.5 1142.5q-3.5 5.5 2.5 14.5l184 256q15 21 39 21h180q9 0 11 -8t-5 -15l-229 -254q-20 -20 -43 -20 h-127q-9 0 -12.5 5.5z" />
<glyph unicode="&#xe2;" horiz-adv-x="1028" d="M70 233q0 172 114.5 263.5t323.5 91.5h192q14 0 17 12l8 55q18 91 -20.5 129.5t-157.5 38.5q-137 0 -232 -69q-19 -13 -26 4l-49 129q-6 15 8 26q65 44 158.5 70.5t193.5 26.5q210 0 288 -80t46 -262l-115 -648q-3 -20 -22 -20h-162q-8 0 -13 5.5t-4 14.5l13 76h-2 q-93 -119 -289 -119q-118 0 -194 69t-76 187zM283 262q0 -52 36 -80t107 -28q103 0 166 44.5t76 129.5l14 84q3 12 -10 12h-158q-122 0 -176.5 -40.5t-54.5 -121.5zM353 1143.5q-3 6.5 3 13.5l240 258q16 19 41 19h115q20 0 28 -19l150 -258q4 -7 0.5 -13.5t-12.5 -6.5h-113 q-22 0 -37 20l-90 129h-2l-137 -129q-20 -20 -45 -20h-129q-9 0 -12 6.5z" />
<glyph unicode="&#xe3;" horiz-adv-x="1028" d="M70 233q0 172 114.5 263.5t323.5 91.5h192q14 0 17 12l8 55q18 91 -20.5 129.5t-157.5 38.5q-137 0 -232 -69q-19 -13 -26 4l-49 129q-6 15 8 26q65 44 158.5 70.5t193.5 26.5q210 0 288 -80t46 -262l-115 -648q-3 -20 -22 -20h-162q-8 0 -13 5.5t-4 14.5l13 76h-2 q-93 -119 -289 -119q-118 0 -194 69t-76 187zM283 262q0 -52 36 -80t107 -28q103 0 166 44.5t76 129.5l14 84q3 12 -10 12h-158q-122 0 -176.5 -40.5t-54.5 -121.5zM367 1176l22 122q5 21 23 39q67 64 151 64q63 0 127 -41q53 -37 103 -37q74 0 143 63q6 6 12 3t4 -9 l-22 -123q-4 -19 -23 -38q-70 -64 -151 -64q-63 0 -127 41q-56 37 -103 37q-72 0 -143 -64q-6 -6 -12 -2.5t-4 9.5z" />
<glyph unicode="&#xe4;" horiz-adv-x="1028" d="M70 233q0 172 114.5 263.5t323.5 91.5h192q14 0 17 12l8 55q18 91 -20.5 129.5t-157.5 38.5q-137 0 -232 -69q-19 -13 -26 4l-49 129q-6 15 8 26q65 44 158.5 70.5t193.5 26.5q210 0 288 -80t46 -262l-115 -648q-3 -20 -22 -20h-162q-8 0 -13 5.5t-4 14.5l13 76h-2 q-93 -119 -289 -119q-118 0 -194 69t-76 187zM283 262q0 -52 36 -80t107 -28q103 0 166 44.5t76 129.5l14 84q3 12 -10 12h-158q-122 0 -176.5 -40.5t-54.5 -121.5zM369 1202l32 170q3 21 23 21h147q9 0 14 -6t3 -15l-31 -170q-3 -20 -22 -20h-150q-19 0 -16 20zM756 1202 l32 170q4 21 23 21h147q20 0 17 -21l-31 -170q-3 -20 -22 -20h-150q-19 0 -16 20z" />
<glyph unicode="&#xe5;" horiz-adv-x="1028" d="M70 233q0 172 114.5 263.5t323.5 91.5h192q14 0 17 12l8 55q18 91 -20.5 129.5t-157.5 38.5q-137 0 -232 -69q-19 -13 -26 4l-49 129q-6 15 8 26q65 44 158.5 70.5t193.5 26.5q210 0 288 -80t46 -262l-115 -648q-3 -20 -22 -20h-162q-8 0 -13 5.5t-4 14.5l13 76h-2 q-93 -119 -289 -119q-118 0 -194 69t-76 187zM283 262q0 -52 36 -80t107 -28q103 0 166 44.5t76 129.5l14 84q3 12 -10 12h-158q-122 0 -176.5 -40.5t-54.5 -121.5zM469 1249q0 98 66.5 170t169.5 72q72 0 117.5 -46t45.5 -118q0 -98 -66 -170t-167 -72q-73 0 -119.5 46 t-46.5 118zM569 1266q0 -37 22 -60.5t60 -23.5q48 0 82.5 36.5t34.5 92.5q0 37 -22 60.5t-58 23.5q-49 0 -84 -36.5t-35 -92.5z" />
<glyph unicode="&#xe6;" horiz-adv-x="1599" d="M70 233q0 172 114.5 263.5t323.5 91.5h192q14 0 17 12l8 55q18 91 -20.5 129.5t-157.5 38.5q-137 0 -232 -69q-19 -13 -26 4l-49 129q-6 15 8 26q65 44 158.5 70.5t193.5 26.5q234 0 297 -109h4q54 52 130.5 80.5t160.5 28.5q153 0 249.5 -91t96.5 -255q0 -77 -27 -220 q-3 -20 -24 -20h-586q-11 0 -14 -12q-4 -14 -4 -41q0 -107 47 -154t141 -47q68 0 133 28.5t115 73.5q17 14 31 0l88 -96q16 -16 -2 -33q-76 -74 -179.5 -120t-222.5 -46q-231 0 -309 160h-2q-113 -160 -361 -160q-139 0 -215.5 68.5t-76.5 187.5zM283 262q0 -52 36 -80 t107 -28q103 0 166 44.5t76 129.5l14 84q3 12 -10 12h-158q-122 0 -176.5 -40.5t-54.5 -121.5zM922 600q-3 -12 8 -12h377q13 0 16 12q6 30 6 62q0 163 -166 163q-70 0 -125.5 -33.5t-85.5 -97.5q-20 -38 -30 -94z" />
<glyph unicode="&#xe7;" horiz-adv-x="917" d="M86 322q0 85 23 212.5t67 219.5q123 256 428 256q208 0 299 -166q9 -18 -8 -29l-125 -94q-20 -13 -31 6q-28 47 -64.5 68.5t-90.5 21.5q-67 0 -120 -35t-85 -102q-31 -61 -51.5 -163t-20.5 -161q0 -186 160 -186q99 0 197 94q14 14 26 2l105 -104q12 -12 -2 -29 q-109 -134 -310 -153l-133 -275q-10 -20 -35 -20h-147q-20 0 -10 20l164 287q-113 28 -174.5 114t-61.5 216z" />
<glyph unicode="&#xe8;" horiz-adv-x="1009" d="M86 336q0 96 21.5 213t58.5 194q130 267 436 267q153 0 249.5 -91t96.5 -255q0 -82 -26 -220q-3 -20 -25 -20h-586q-11 0 -14 -12q-4 -14 -4 -41q0 -107 47.5 -154t142.5 -47q67 0 133 29t113 73q17 14 31 0l88 -96q14 -17 -2 -33q-76 -74 -179.5 -120t-222.5 -46 q-176 0 -267 94t-91 265zM332 600q-3 -12 8 -12h377q13 0 16 12q6 30 6 62q0 163 -166 163q-70 0 -125.5 -33.5t-85.5 -97.5q-22 -49 -30 -94zM379 1413q-4 7 0.5 14t13.5 7h170q22 0 31 -21l102 -256q3 -9 -2 -14.5t-14 -5.5h-125q-21 0 -35 20z" />
<glyph unicode="&#xe9;" horiz-adv-x="1009" d="M86 336q0 96 21.5 213t58.5 194q130 267 436 267q153 0 249.5 -91t96.5 -255q0 -82 -26 -220q-3 -20 -25 -20h-586q-11 0 -14 -12q-4 -14 -4 -41q0 -107 47.5 -154t142.5 -47q67 0 133 29t113 73q17 14 31 0l88 -96q14 -17 -2 -33q-76 -74 -179.5 -120t-222.5 -46 q-176 0 -267 94t-91 265zM332 600q-3 -12 8 -12h377q13 0 16 12q6 30 6 62q0 163 -166 163q-70 0 -125.5 -33.5t-85.5 -97.5q-22 -49 -30 -94zM513.5 1142.5q-3.5 5.5 2.5 14.5l184 256q15 21 39 21h181q9 0 11 -8t-5 -15l-230 -254q-20 -20 -43 -20h-127q-9 0 -12.5 5.5z " />
<glyph unicode="&#xea;" horiz-adv-x="1009" d="M86 336q0 96 21.5 213t58.5 194q130 267 436 267q153 0 249.5 -91t96.5 -255q0 -82 -26 -220q-3 -20 -25 -20h-586q-11 0 -14 -12q-4 -14 -4 -41q0 -107 47.5 -154t142.5 -47q67 0 133 29t113 73q17 14 31 0l88 -96q14 -17 -2 -33q-76 -74 -179.5 -120t-222.5 -46 q-176 0 -267 94t-91 265zM307.5 1143.5q-2.5 6.5 3.5 13.5l240 258q16 19 41 19h115q20 0 28 -19l150 -258q4 -7 0 -13.5t-13 -6.5h-112q-22 0 -37 20l-90 129h-2l-137 -129q-20 -20 -45 -20h-130q-9 0 -11.5 6.5zM332 600q-3 -12 8 -12h377q13 0 16 12q6 30 6 62 q0 163 -166 163q-70 0 -125.5 -33.5t-85.5 -97.5q-22 -49 -30 -94z" />
<glyph unicode="&#xeb;" horiz-adv-x="1009" d="M86 336q0 96 21.5 213t58.5 194q130 267 436 267q153 0 249.5 -91t96.5 -255q0 -82 -26 -220q-3 -20 -25 -20h-586q-11 0 -14 -12q-4 -14 -4 -41q0 -107 47.5 -154t142.5 -47q67 0 133 29t113 73q17 14 31 0l88 -96q14 -17 -2 -33q-76 -74 -179.5 -120t-222.5 -46 q-176 0 -267 94t-91 265zM332 600q-3 -12 8 -12h377q13 0 16 12q6 30 6 62q0 163 -166 163q-70 0 -125.5 -33.5t-85.5 -97.5q-22 -49 -30 -94zM336 1202l33 170q3 21 22 21h148q19 0 16 -21l-31 -170q-3 -20 -22 -20h-150q-19 0 -16 20zM723 1202l33 170q4 21 22 21h148 q20 0 16 -21l-31 -170q-3 -20 -22 -20h-150q-19 0 -16 20z" />
<glyph unicode="&#xec;" horiz-adv-x="503" d="M72 20l168 947q3 20 22 20h178q20 0 17 -20l-168 -947q-3 -20 -21 -20h-178q-21 0 -18 20zM119 1413q-4 7 0.5 14t13.5 7h170q22 0 31 -21l102 -256q3 -9 -2 -14.5t-14 -5.5h-125q-21 0 -35 20z" />
<glyph unicode="&#xed;" horiz-adv-x="503" d="M72 20l168 947q3 20 22 20h178q20 0 17 -20l-168 -947q-3 -20 -21 -20h-178q-21 0 -18 20zM298.5 1142.5q-3.5 5.5 2.5 14.5l184 256q15 21 39 21h181q9 0 11 -8t-5 -15l-230 -254q-20 -20 -43 -20h-127q-9 0 -12.5 5.5z" />
<glyph unicode="&#xee;" horiz-adv-x="503" d="M72 20l168 947q3 20 22 20h178q20 0 17 -20l-168 -947q-3 -20 -21 -20h-178q-21 0 -18 20zM92.5 1143.5q-2.5 6.5 3.5 13.5l240 258q16 19 41 19h115q20 0 28 -19l150 -258q4 -7 0 -13.5t-13 -6.5h-112q-22 0 -37 20l-90 129h-2l-137 -129q-20 -20 -46 -20h-129 q-9 0 -11.5 6.5z" />
<glyph unicode="&#xef;" horiz-adv-x="503" d="M72 20l168 947q3 20 22 20h178q20 0 17 -20l-168 -947q-3 -20 -21 -20h-178q-21 0 -18 20zM100 1202l33 170q3 21 23 21h147q19 0 16 -21l-30 -170q-3 -20 -23 -20h-149q-20 0 -17 20zM487 1202l33 170q4 21 23 21h147q20 0 17 -21l-31 -170q-3 -20 -23 -20h-149 q-20 0 -17 20z" />
<glyph unicode="&#xf0;" horiz-adv-x="1026" d="M94 338q0 193 74 350q58 123 155 189.5t216 66.5q52 0 78 -8t57 -29h4l-96 185l-193 -56q-19 -6 -22 13l-11 112q-3 21 21 27l133 39l-74 145q-3 7 1 14t12 7h190q19 0 31 -21l43 -86l186 55q20 7 23 -12l10 -108q4 -25 -21 -31l-129 -39l54 -98q120 -232 120 -463 q0 -202 -79 -361q-63 -126 -176.5 -189t-262.5 -63q-165 0 -254.5 97t-89.5 264zM311 354q0 -182 162 -182q140 0 205 133q61 119 61 268q0 88 -40.5 135.5t-120.5 47.5q-140 0 -205 -135q-62 -121 -62 -267z" />
<glyph unicode="&#xf1;" horiz-adv-x="1077" d="M72 20l168 947q3 20 22 20h178q20 0 17 -20l-17 -76h2q103 119 273 119q153 0 223.5 -102t40.5 -265l-111 -623q-3 -20 -22 -20h-174q-8 0 -13 5.5t-4 14.5l101 572q18 104 -18 164.5t-124 60.5q-84 0 -145 -61t-80 -160l-100 -576q-3 -20 -21 -20h-178q-21 0 -18 20z M358 1176l23 122q5 22 22 39q67 64 152 64q63 0 127 -41q53 -37 102 -37q75 0 144 63q6 6 12 3t4 -9l-22 -123q-4 -19 -23 -38q-70 -64 -151 -64q-63 0 -127 41q-56 37 -103 37q-72 0 -143 -64q-6 -6 -12.5 -2.5t-4.5 9.5z" />
<glyph unicode="&#xf2;" horiz-adv-x="1026" d="M86 322q0 95 26 223.5t66 208.5q125 256 436 256q163 0 257 -91.5t94 -252.5q0 -95 -26.5 -224t-66.5 -209q-128 -256 -436 -256q-163 0 -256.5 92t-93.5 253zM307 354q0 -91 38 -137.5t122 -46.5q137 0 205 135q28 57 49.5 162.5t21.5 165.5q0 91 -37.5 137.5 t-121.5 46.5q-138 0 -205 -137q-28 -55 -50 -160.5t-22 -165.5zM383 1413q-4 7 0.5 14t13.5 7h170q22 0 31 -21l102 -256q3 -9 -2 -14.5t-14 -5.5h-125q-21 0 -35 20z" />
<glyph unicode="&#xf3;" horiz-adv-x="1026" d="M86 322q0 95 26 223.5t66 208.5q125 256 436 256q163 0 257 -91.5t94 -252.5q0 -95 -26.5 -224t-66.5 -209q-128 -256 -436 -256q-163 0 -256.5 92t-93.5 253zM307 354q0 -91 38 -137.5t122 -46.5q137 0 205 135q28 57 49.5 162.5t21.5 165.5q0 91 -37.5 137.5 t-121.5 46.5q-138 0 -205 -137q-28 -55 -50 -160.5t-22 -165.5zM538.5 1142.5q-3.5 5.5 2.5 14.5l184 256q15 21 39 21h180q9 0 11 -8t-5 -15l-229 -254q-20 -20 -43 -20h-127q-9 0 -12.5 5.5z" />
<glyph unicode="&#xf4;" horiz-adv-x="1026" d="M86 322q0 95 26 223.5t66 208.5q125 256 436 256q163 0 257 -91.5t94 -252.5q0 -95 -26.5 -224t-66.5 -209q-128 -256 -436 -256q-163 0 -256.5 92t-93.5 253zM307 354q0 -91 38 -137.5t122 -46.5q137 0 205 135q28 57 49.5 162.5t21.5 165.5q0 91 -37.5 137.5 t-121.5 46.5q-138 0 -205 -137q-28 -55 -50 -160.5t-22 -165.5zM334.5 1143.5q-2.5 6.5 3.5 13.5l240 258q16 19 40 19h115q21 0 29 -19l149 -258q5 -7 1 -13.5t-13 -6.5h-113q-21 0 -36 20l-91 129h-2l-137 -129q-20 -20 -45 -20h-129q-9 0 -11.5 6.5z" />
<glyph unicode="&#xf5;" horiz-adv-x="1026" d="M86 322q0 95 26 223.5t66 208.5q125 256 436 256q163 0 257 -91.5t94 -252.5q0 -95 -26.5 -224t-66.5 -209q-128 -256 -436 -256q-163 0 -256.5 92t-93.5 253zM307 354q0 -91 38 -137.5t122 -46.5q137 0 205 135q28 57 49.5 162.5t21.5 165.5q0 91 -37.5 137.5 t-121.5 46.5q-138 0 -205 -137q-28 -55 -50 -160.5t-22 -165.5zM367 1176l22 122q5 21 23 39q67 64 151 64q63 0 127 -41q53 -37 103 -37q74 0 143 63q6 6 12 3t4 -9l-22 -123q-4 -19 -23 -38q-70 -64 -151 -64q-63 0 -127 41q-56 37 -103 37q-72 0 -143 -64q-6 -6 -12 -2.5 t-4 9.5z" />
<glyph unicode="&#xf6;" horiz-adv-x="1026" d="M86 322q0 95 26 223.5t66 208.5q125 256 436 256q163 0 257 -91.5t94 -252.5q0 -95 -26.5 -224t-66.5 -209q-128 -256 -436 -256q-163 0 -256.5 92t-93.5 253zM307 354q0 -91 38 -137.5t122 -46.5q137 0 205 135q28 57 49.5 162.5t21.5 165.5q0 91 -37.5 137.5 t-121.5 46.5q-138 0 -205 -137q-28 -55 -50 -160.5t-22 -165.5zM344 1202l33 170q3 21 22 21h148q19 0 16 -21l-31 -170q-3 -20 -22 -20h-150q-19 0 -16 20zM731 1202l33 170q4 21 22 21h148q20 0 16 -21l-30 -170q-3 -20 -23 -20h-149q-20 0 -17 20z" />
<glyph unicode="&#xf7;" d="M115 492v147q0 20 20 20h848q21 0 21 -20v-147q0 -9 -6 -15t-15 -6h-848q-20 0 -20 21zM428 211q0 56 38 94.5t93 38.5t93 -38.5t38 -94.5q0 -55 -38 -93t-93 -38t-93 38t-38 93zM428 920q0 56 38 93.5t93 37.5t93 -37.5t38 -93.5t-38 -95t-93 -39t-93 39t-38 95z" />
<glyph unicode="&#xf8;" horiz-adv-x="1026" d="M14 -54.5q-2 6.5 4 13.5l125 152q-57 85 -57 211q0 95 26 223.5t66 208.5q125 256 436 256q138 0 230 -70l71 86q18 21 39 21h70q9 0 10.5 -6.5t-4.5 -14.5l-123 -152q58 -86 58 -208q0 -95 -26.5 -224t-66.5 -209q-128 -256 -436 -256q-139 0 -229 68l-72 -86 q-17 -20 -41 -20h-69q-9 0 -11 6.5zM303 354q0 -39 4 -57l395 479q-43 43 -118 43q-141 0 -209 -139q-28 -55 -50 -160.5t-22 -165.5zM346 211q40 -43 121 -43q141 0 209 137q28 57 50 162.5t22 165.5q0 13 -5 53z" />
<glyph unicode="&#xf9;" horiz-adv-x="1069" d="M119 344l110 623q3 20 21 20h176q21 0 18 -20l-102 -572q-18 -104 17 -163.5t122 -59.5q85 0 144.5 59.5t76.5 159.5l101 576q3 20 22 20h176q9 0 14.5 -5.5t4.5 -14.5l-168 -947q-3 -20 -23 -20h-176q-8 0 -12.5 5.5t-3.5 14.5l14 76h-2q-107 -119 -268 -119 q-151 0 -220.5 102t-41.5 265zM414 1413q-4 7 0.5 14t13.5 7h170q22 0 31 -21l102 -256q3 -9 -2 -14.5t-14 -5.5h-125q-21 0 -35 20z" />
<glyph unicode="&#xfa;" horiz-adv-x="1069" d="M119 344l110 623q3 20 21 20h176q21 0 18 -20l-102 -572q-18 -104 17 -163.5t122 -59.5q85 0 144.5 59.5t76.5 159.5l101 576q3 20 22 20h176q9 0 14.5 -5.5t4.5 -14.5l-168 -947q-3 -20 -23 -20h-176q-8 0 -12.5 5.5t-3.5 14.5l14 76h-2q-107 -119 -268 -119 q-151 0 -220.5 102t-41.5 265zM548.5 1142.5q-3.5 5.5 2.5 14.5l184 256q15 21 39 21h180q9 0 11.5 -8t-4.5 -15l-230 -254q-20 -20 -43 -20h-127q-9 0 -12.5 5.5z" />
<glyph unicode="&#xfb;" horiz-adv-x="1069" d="M119 344l110 623q3 20 21 20h176q21 0 18 -20l-102 -572q-18 -104 17 -163.5t122 -59.5q85 0 144.5 59.5t76.5 159.5l101 576q3 20 22 20h176q9 0 14.5 -5.5t4.5 -14.5l-168 -947q-3 -20 -23 -20h-176q-8 0 -12.5 5.5t-3.5 14.5l14 76h-2q-107 -119 -268 -119 q-151 0 -220.5 102t-41.5 265zM361.5 1143.5q-2.5 6.5 3.5 13.5l239 258q16 19 41 19h115q20 0 28 -19l150 -258q4 -7 0.5 -13.5t-12.5 -6.5h-113q-22 0 -37 20l-90 129h-2l-137 -129q-20 -20 -45 -20h-129q-9 0 -11.5 6.5z" />
<glyph unicode="&#xfc;" horiz-adv-x="1069" d="M119 344l110 623q3 20 21 20h176q21 0 18 -20l-102 -572q-18 -104 17 -163.5t122 -59.5q85 0 144.5 59.5t76.5 159.5l101 576q3 20 22 20h176q9 0 14.5 -5.5t4.5 -14.5l-168 -947q-3 -20 -23 -20h-176q-8 0 -12.5 5.5t-3.5 14.5l14 76h-2q-107 -119 -268 -119 q-151 0 -220.5 102t-41.5 265zM365 1202l32 170q3 21 23 21h147q9 0 14 -6t3 -15l-31 -170q-3 -20 -23 -20h-149q-19 0 -16 20zM752 1202l32 170q4 21 23 21h147q20 0 17 -21l-31 -170q-3 -20 -22 -20h-150q-19 0 -16 20z" />
<glyph unicode="&#xfd;" horiz-adv-x="960" d="M18 -348l27 153q1 9 8.5 15t16.5 6h36q56 0 93 28.5t73 96.5l43 84l-182 932q-3 20 17 20h186q17 0 20 -20l101 -654h4l325 654q9 20 27 20h188q10 0 14.5 -5.5t0.5 -14.5l-551 -1030q-92 -174 -172 -240t-197 -66h-61q-9 0 -14.5 6t-2.5 15zM489.5 1142.5 q-3.5 5.5 2.5 14.5l184 256q15 21 39 21h180q9 0 11 -8t-5 -15l-229 -254q-20 -20 -43 -20h-127q-9 0 -12.5 5.5z" />
<glyph unicode="&#xfe;" horiz-adv-x="1069" d="M8 -348l303 1720q3 21 23 21h178q20 0 16 -21l-86 -483h2q102 121 277 121q137 0 213 -87.5t76 -238.5q0 -106 -28 -248.5t-73 -232.5q-59 -118 -148.5 -172t-215.5 -54q-95 0 -154.5 34.5t-85.5 88.5h-2l-78 -448q-3 -21 -20 -21h-178q-9 0 -14.5 6t-4.5 15zM356 348 q0 -178 158 -178q139 0 205 135q27 53 48 159.5t21 174.5q0 89 -37 133.5t-120 44.5q-141 0 -205 -135q-26 -51 -48 -159t-22 -175z" />
<glyph unicode="&#xff;" horiz-adv-x="960" d="M18 -348l27 153q1 9 8.5 15t16.5 6h36q56 0 93 28.5t73 96.5l43 84l-182 932q-3 20 17 20h186q17 0 20 -20l101 -654h4l325 654q9 20 27 20h188q10 0 14.5 -5.5t0.5 -14.5l-551 -1030q-92 -174 -172 -240t-197 -66h-61q-9 0 -14.5 6t-2.5 15zM313 1202l33 170q4 21 23 21 h147q20 0 16 -21l-30 -170q-3 -20 -23 -20h-149q-20 0 -17 20zM700 1202l33 170q3 21 23 21h147q9 0 14 -6t3 -15l-31 -170q-3 -20 -23 -20h-149q-20 0 -17 20z" />
<glyph unicode="&#x152;" horiz-adv-x="1857" d="M115 395q0 102 48 355t97 350q78 163 208 239t318 76q86 0 152.5 -27t103.5 -77h2l13 61q3 21 22 21h832q9 0 14 -6t4 -15l-31 -164q-3 -20 -24 -20h-610q-12 0 -15 -12l-63 -359q-3 -12 10 -12h518q20 0 17 -21l-31 -163q-4 -21 -25 -21h-516q-11 0 -14 -12l-66 -371 q-3 -12 11 -12h612q20 0 16 -21l-28 -164q-3 -20 -23 -20h-831q-9 0 -14.5 5.5t-4.5 14.5l10 62h-2q-114 -105 -290 -105q-190 0 -305 109t-115 309zM348 414q0 -107 59 -168.5t164 -61.5q97 0 170 50.5t115 140.5q39 81 79 299t40 305q0 106 -59.5 168.5t-163.5 62.5 q-97 0 -169.5 -51t-115.5 -141q-39 -81 -79 -299t-40 -305z" />
<glyph unicode="&#x153;" horiz-adv-x="1640" d="M86 322q0 95 26 223.5t66 208.5q125 256 436 256q199 0 285 -140h4q62 70 149 105t181 35q153 0 249.5 -91t96.5 -255q0 -77 -27 -220q-3 -20 -24 -20h-586q-11 0 -14 -12q-4 -14 -4 -41q0 -107 47.5 -154t142.5 -47q67 0 133 29t113 73q17 14 31 0l88 -96q14 -17 -2 -33 q-76 -74 -179.5 -120t-222.5 -46q-220 0 -301 144h-4q-133 -144 -334 -144q-163 0 -256.5 92t-93.5 253zM307 354q0 -91 38 -137.5t122 -46.5q137 0 205 135q28 57 49.5 162.5t21.5 165.5q0 91 -37.5 137.5t-121.5 46.5q-138 0 -205 -137q-28 -55 -50 -160.5t-22 -165.5z M963 600q-3 -12 8 -12h377q13 0 16 12q6 30 6 62q0 163 -166 163q-70 0 -125.5 -33.5t-85.5 -97.5q-22 -49 -30 -94z" />
<glyph unicode="&#x178;" horiz-adv-x="1062" d="M195 1372q-2 8 3 14.5t15 6.5h186q21 0 27 -21l168 -555h6l365 555q12 21 30 21h195q11 0 15 -6.5t-1 -14.5l-534 -803l-99 -549q-3 -20 -22 -20h-184q-9 0 -14.5 5.5t-4.5 14.5l98 549zM430 1599l33 170q3 21 22 21h146q19 0 16 -21l-29 -170q-3 -20 -22 -20h-150 q-19 0 -16 20zM817 1599l33 170q4 21 22 21h148q20 0 16 -21l-30 -170q-3 -20 -23 -20h-149q-20 0 -17 20z" />
<glyph unicode="&#x2c6;" horiz-adv-x="839" d="M252.5 1143.5q-2.5 6.5 3.5 13.5l240 258q16 19 41 19h114q21 0 29 -19l149 -258q5 -7 1 -13.5t-13 -6.5h-112q-22 0 -37 20l-90 129h-3l-137 -129q-20 -20 -45 -20h-129q-9 0 -11.5 6.5z" />
<glyph unicode="&#x2dc;" horiz-adv-x="839" d="M274 1176l23 122q5 22 22 39q67 64 152 64q63 0 127 -41q53 -37 102 -37q75 0 144 63q6 6 12 3t4 -9l-22 -123q-4 -19 -23 -38q-70 -64 -151 -64q-63 0 -127 41q-56 37 -103 37q-72 0 -143 -64q-6 -6 -12.5 -2.5t-4.5 9.5z" />
<glyph unicode="&#x2000;" horiz-adv-x="941" />
<glyph unicode="&#x2001;" horiz-adv-x="1882" />
<glyph unicode="&#x2002;" horiz-adv-x="941" />
<glyph unicode="&#x2003;" horiz-adv-x="1882" />
<glyph unicode="&#x2004;" horiz-adv-x="627" />
<glyph unicode="&#x2005;" horiz-adv-x="470" />
<glyph unicode="&#x2006;" horiz-adv-x="313" />
<glyph unicode="&#x2007;" horiz-adv-x="313" />
<glyph unicode="&#x2008;" horiz-adv-x="235" />
<glyph unicode="&#x2009;" horiz-adv-x="376" />
<glyph unicode="&#x200a;" horiz-adv-x="104" />
<glyph unicode="&#x2010;" horiz-adv-x="747" d="M96 469l27 149q2 9 8.5 15t15.5 6h539q20 0 16 -21l-26 -149q-3 -20 -25 -20h-538q-20 0 -17 20z" />
<glyph unicode="&#x2011;" horiz-adv-x="747" d="M96 469l27 149q2 9 8.5 15t15.5 6h539q20 0 16 -21l-26 -149q-3 -20 -25 -20h-538q-20 0 -17 20z" />
<glyph unicode="&#x2012;" horiz-adv-x="747" d="M96 469l27 149q2 9 8.5 15t15.5 6h539q20 0 16 -21l-26 -149q-3 -20 -25 -20h-538q-20 0 -17 20z" />
<glyph unicode="&#x2013;" horiz-adv-x="1024" d="M51 475l25 139q4 21 22 21h901q8 0 12 -6t3 -15l-23 -139q-1 -9 -7.5 -14.5t-14.5 -5.5h-901q-20 0 -17 20z" />
<glyph unicode="&#x2014;" horiz-adv-x="1705" d="M51 475l25 139q4 21 22 21h1583q8 0 12 -6t3 -15l-23 -139q-1 -9 -7.5 -14.5t-14.5 -5.5h-1583q-20 0 -17 20z" />
<glyph unicode="&#x2018;" horiz-adv-x="438" d="M227 1028l33 189q5 25 23 40l153 125q18 15 31 15q19 0 16 -21l-59 -348q-3 -20 -23 -20h-157q-20 0 -17 20z" />
<glyph unicode="&#x2019;" horiz-adv-x="438" d="M227 1024l62 348q3 21 22 21h156q19 0 16 -21l-32 -188q-5 -25 -21 -41l-156 -125q-17 -14 -30 -14q-20 0 -17 20z" />
<glyph unicode="&#x201a;" horiz-adv-x="438" d="M18 -162l60 348q4 21 22 21h158q20 0 16 -21l-32 -188q-5 -26 -23 -41l-153 -125q-17 -14 -31 -14q-20 0 -17 20z" />
<glyph unicode="&#x201c;" horiz-adv-x="774" d="M227 1028l33 189q5 25 23 40l153 125q18 15 31 15q19 0 16 -21l-59 -348q-3 -20 -23 -20h-157q-20 0 -17 20zM563 1028l33 189q5 26 22 40l154 125q18 15 31 15q19 0 16 -21l-59 -348q-3 -20 -23 -20h-157q-20 0 -17 20z" />
<glyph unicode="&#x201d;" horiz-adv-x="774" d="M227 1024l62 348q3 21 22 21h156q19 0 16 -21l-32 -188q-5 -25 -21 -41l-156 -125q-17 -14 -30 -14q-20 0 -17 20zM563 1024l62 348q3 21 22 21h156q19 0 16 -21l-33 -188q-6 -29 -20 -41l-156 -125q-17 -14 -30 -14q-20 0 -17 20z" />
<glyph unicode="&#x201e;" horiz-adv-x="774" d="M18 -162l60 348q4 21 22 21h158q20 0 16 -21l-32 -188q-5 -26 -23 -41l-153 -125q-17 -14 -31 -14q-20 0 -17 20zM354 -162l60 348q4 21 22 21h158q20 0 16 -21l-32 -188q-5 -26 -23 -41l-154 -125q-17 -14 -30 -14q-20 0 -17 20z" />
<glyph unicode="&#x2022;" horiz-adv-x="825" d="M176 631q0 126 79 205t204 79t204.5 -79t79.5 -205t-79.5 -205.5t-204.5 -79.5t-204 79.5t-79 205.5z" />
<glyph unicode="&#x2026;" horiz-adv-x="1480" d="M59 20l35 201q4 21 23 21h190q9 0 14.5 -6t4.5 -15l-33 -201q-3 -20 -23 -20h-192q-9 0 -14.5 5.5t-4.5 14.5zM553 20l35 201q4 21 22 21h191q9 0 14 -6t4 -15l-33 -201q-3 -20 -22 -20h-193q-21 0 -18 20zM1047 20l34 201q3 21 23 21h190q9 0 14.5 -6t4.5 -15l-33 -201 q-3 -20 -23 -20h-192q-21 0 -18 20z" />
<glyph unicode="&#x202f;" horiz-adv-x="376" />
<glyph unicode="&#x2039;" horiz-adv-x="618" d="M88 526q-12 16 4 29l471 414q6 6 13 3.5t6 -11.5l-35 -197q-5 -24 -27 -43l-207 -180q-10 -8 -4 -17l144 -184q17 -20 12 -43l-31 -176q-1 -9 -8.5 -11.5t-13.5 3.5z" />
<glyph unicode="&#x203a;" horiz-adv-x="618" d="M78 121l33 196q6 25 26 43l209 181q10 7 4 16l-143 184q-17 20 -12 43l28 177q1 9 9 11.5t14 -3.5l325 -414q12 -16 -4 -29l-471 -413q-6 -6 -12.5 -3.5t-5.5 11.5z" />
<glyph unicode="&#x205f;" horiz-adv-x="470" />
<glyph unicode="&#x20ac;" d="M96 510l21 117q3 20 22 20h74q11 0 14 12l15 86q3 13 -9 13h-73q-20 0 -17 20l21 115q3 20 24 20h72q11 0 14 13q20 121 64 204q67 141 182.5 213t265.5 72q138 0 220.5 -66.5t113.5 -179.5q6 -19 -12 -26l-154 -68q-18 -7 -24 10q-27 69 -66 102.5t-110 33.5 q-140 0 -215 -148q-32 -69 -43 -147q-3 -13 10 -13h356q20 0 17 -20l-41 -115q-6 -20 -25 -20h-336q-11 0 -14 -13l-14 -86q-3 -12 10 -12h315q20 0 17 -20l-41 -117q-6 -21 -25 -21h-295q-11 0 -14 -12q-13 -69 -13 -119q0 -186 162 -186q123 0 223 137q13 16 29 10 l137 -71q17 -13 7 -27q-156 -244 -426 -244q-171 0 -263 94.5t-92 264.5q0 55 17 141q3 12 -11 12h-73q-9 0 -14 6t-3 15z" />
<glyph unicode="&#x2122;" horiz-adv-x="1730" d="M174 1272v100q0 9 6 15t15 6h600q20 0 20 -21v-100q0 -21 -20 -21h-207q-13 0 -13 -12v-633q0 -20 -20 -20h-121q-20 0 -20 20v633q0 12 -13 12h-206q-9 0 -15 6t-6 15zM956 606v766q0 9 6 15t15 6h102q19 0 29 -21l225 -485h6l217 485q10 21 29 21h103q20 0 20 -21v-766 q0 -20 -20 -20h-111q-21 0 -21 20v436h-4l-149 -319q-11 -21 -27 -21h-86q-16 0 -26 21l-152 319h-4v-436q0 -20 -21 -20h-110q-21 0 -21 20z" />
<glyph unicode="&#x25fc;" horiz-adv-x="983" d="M0 0v983h983v-983h-983z" />
</font>
</defs>
</svg>
